Loading...
Error

Опергруппа / Сезон: 1 Серии: 1-12 из 12 (Леонид Пляскин) [2009 г., криминальный, SATRip]

Статистика раздачи
Размер:  5,59 GB   |    Зарегистрирован:  4 года 4 месяца   |    Скачан:  6 раз

Полного источника не было: 2 года

Сидов:  0  |  0 KB/s  ]   Личеров:  0  |  0 KB/s  ]

* - сиды/пиры с внешних источников

   
 
Автор Сообщение

nemos Пол:Муж

28-Июл-2012 07:41

Опергруппа / Сезон: 1 Серии: 1-12 из 12 (Леонид Пляскин)


Год выпуска: 2009
Жанр: Боевик, криминал
Страна: Россия
Режиссер: Леонид Пляскин
В ролях: Александр Кудренко, Антон Багмет, Татьяна Бондаренко, Сергей Гамов, Татьяна Гончарова, Вячеслав Захаров, Игорь Иванов, Андрей Перович, Владимир Постников, Денис Синявский, Екатерина Старателева, Антон Сычев, Алексей Одинг, Александр Черкашин
Сюжет фильма:
Сотрудники районного отдела по расследованию убийств во главе со своим руководителем, полковником Самохиным, срочно вызваны на место очередного преступления. На сей раз жертвой заказного убийства стал коммерческий директор компании "Автоком", деятельность которой уже давно находится под подозрением у правоохранительных органов. Дело в том, что владельцем и руководителем этого предприятия является бывший криминальный авторитет Махров, люди которого промышляют самыми разнообразными, по большей части незаконными, делами. Махров, которого допрашивает майор Сурков, просто в шоке. Он понятия не имеет, кто именно заказал его подчиненного, но он явно напуган: на его бизнес совершено нападение, что очень некстати именно сейчас, когда в городе оказалась большая партия наркотиков, дележом которой занимаются сразу две бандитские группировки. Одну из них возглавляет Махров, а другую - молодой и жестокий вор Валерий Притыкин по прозвищу Груздь, именно на него падает основное подозрение. Тем более, что почти сразу же после убийства Груздь и его подручный Чёкунь появляются в модельном агентстве, которое "опекает" Махров, и нагло предъявляют на него свои права, вслед за чем начинается необъявленная, но от этого не менее жестокая война между двумя авторитетами. Однако у Самохина по-прежнему нет никаких улик, с помощью которых оперативники могли бы уличить Махрова или Груздя в незаконной деятельности. Тогда полковник решает воспользоваться старым, но многократно проверенным методом: в бандитскую группировку внедряется двойной агент.
Качество видео: SatRip

Продолжительность: 00:43:48 х 12

Формат: AVI
Видео: XviD, 640x368, 1 309 kbps
Аудио: русский, MP3 2.0, 128 kbps

Код:

D:\СКАЧКИ\КИНОЗАЛ тв\ФИЛЬМЫ\Opergruppa.(12.serij.iz.12).2009.XviD.SATRip-BigFANgroup\Opergruppa.(04.serija.iz.12).2009.XviD.SATRip-BigFANgroup.avi
   General
      Complete name : D:\СКАЧКИ\КИНОЗАЛ тв\ФИЛЬМЫ\Opergruppa.(12.serij.iz.12).2009.XviD.SATRip-BigFANgroup\Opergruppa.(04.serija.iz.12).2009.XviD.SATRip-BigFANgroup.avi
      Format : AVI
      Format/Info : Audio Video Interleave
      File size : 480 MiB
      Duration : 46mn 27s
      Overall bit rate : 1 445 Kbps
      Writing application : VirtualDubMod 1.5.4.1 (build 2178/release)
      Writing library : VirtualDubMod build 2178/release
   Video #0
      ID : 0
      Format : MPEG-4 Visual
      Format profile : Simple@L3
      Format settings, BVOP : Yes
      Format settings, QPel : No
      Format settings, GMC : No warppoints
      Format settings, Matrix : Custom
      Codec ID : XVID
      Codec ID/Hint : XviD
      Duration : 46mn 27s
      Bit rate : 1 309 Kbps
      Width : 640 pixels
      Height : 368 pixels
      Display aspect ratio : 16:9
      Frame rate : 25.000 fps
      Color space : YUV
      Chroma subsampling : 4:2:0
      Bit depth : 8 bits
      Scan type : Progressive
      Bits/(Pixel*Frame) : 0.222
      Stream size : 435 MiB (91%)
      Writing library : XviD 1.1.0 Beta2 (UTC 2005-04-04)
   Audio #1
      ID : 1
      Format : MPEG Audio
      Format version : Version 1
      Format profile : Layer 3
      Mode : Joint stereo
      Mode extension : MS Stereo
      Codec ID : 55
      Codec ID/Hint : MP3
      Duration : 46mn 27s
      Bit rate mode : Constant
      Bit rate : 128 Kbps
      Channel(s) : 2 channels
      Sampling rate : 48.0 KHz
      Stream size : 42.5 MiB (9%)
      Alignment : Aligned on interleaves
      Interleave, duration : 80 ms (2.00 video frames)
      Interleave, preload duration : 504 ms
      Writing library : LAME3.98r
      Encoding settings : -m j -V 4 -q 2 -lowpass 17 -b 128
Семпл: http://multi-up.com/738762

picpicpicpicpicpic
Для увеличения картинки щелкните мышкой по превью

Этот торрент недоступен для скачивания без регистрации, однако доступен по публичной magnet-ссылке (источники с публичных трекеров). Перед использованием ссылки прочтите, пожалуйста Пользовательское соглашение, а также как можно дольше оставайтесь на раздаче! Для того, чтобы скачать сам торрент-файл (который видит больше источников), а также для того, чтобы поблагодарить релизера, вам необходимо зарегистрироваться. Если регистрироваться лень - вы можете также попробовать скачать релиз по нашим партнерским ссылкам ниже.

[underverse.su].t18989.torrent
Трекер: Зарегистрирован   [ 28.07.2012 07:41 ]  

Статус: проверено (by garry at 28.07.2012 07:48)
Поблагодарили: 1 человек
Тип торрента: публичный - доступные источники с открытых трекеров: 
Размер: 5,59 GB (занимает 1,28 DVDR, для записи нужно 2 болванки DVDR/RW)
 
 
Похожие темы
Форум Тема Автор Торрент Отв. Посл. сооб.
xUSSR сериалы Опергруппа 2 / Серии: 16 из 16 (Алексей Шикин, Максим Демченко) [2012, детектив, криминал, SATRip] nemos
0 | 0

0 | 648

1

27.07.2012 16:15



Последний раз редактировалось: nemos (06.11.2014 12:51), всего редактировалось 1 раз

garry Пол:Муж

28-Июл-2012 07:45

если это не релиз кинозал.тв зачем выбирать тогда? пропускайте этот пункт. выбирайте соответствующую релизу иконку. если нет ее в списке - ничего не надо выбирать. а для полного счастья можно вручную вставить в оформление.

Яндекс.Метрика powered by Sphinx


В Н И М А Н И Е
Сайт не распространяет и не хранит электронные версии произведений, а лишь бесплатно и без коммерческой выгоды (не требуя взамен платы,
SMS и т.д.) предоставляет доступ к создаваемому пользователями каталогу ссылок на торрент-файлы, которые содержат только списки хеш-сумм.
Убедительная просьба с жалобами обращаться напрямую к пользователю, разместившему торрент файл.

Вверх