Loading...
Error

Опергруппа 2 / Серии: 16 из 16 (Алексей Шикин, Максим Демченко) [2012, детектив, криминал, SATRip]

Статистика раздачи
Размер:  8,59 GB   |    Зарегистрирован:  4 года 4 месяца   |    Скачан:  1 раз

Полного источника не было: 2 года

Сидов:  0  |  0 KB/s  ]   Личеров:  0  |  0 KB/s  ]

* - сиды/пиры с внешних источников

   
 
Автор Сообщение

nemos Пол:Муж

27-Июл-2012 16:15

Опергруппа 2 / Серии: 16 из 16 (Алексей Шикин, Максим Демченко) [2012, детектив, криминал, SATRip]


Год выпуска: 2012
Жанр: детектив, криминал
Страна: Россия
Режиссер: Алексей Шикин, Максим Демченко
В ролях: Юлия Кудояр, Анжелина Карелина, Сергей Гамов, Борис Бедросов, Филипп Дьячков (II), Ольга Медынич, Андрей Павловец, Дмитрий Поднозов, Александр Лазарев (III), Леонид Ворон, Борис Драгилев, Егор Бакулин, Егор Кутенков, Иван Краско, Дарья Курочкина, Дарья Румянцева, Денис Клявер, Светлана Смирнова-Марцинкевич, Татьяна Воротникова, Валерий Девятилов, Виктория Адельфина, Юлия Морозова (II)
Сюжет фильма:
По мотивам произведений Владимира Рыжкова. Полковника Самохина переводят в новый отдел милиции, где он должен возглавить опергруппу криминальной милиции. В его подчинении оказываются двое – капитан Барич и лейтенант Викулов, которых трудно назвать фанатиками своего дела. Барич больше увлечен женщинами, Викулов вообще дал слово своей девушке, уйти из милиции. Однако сыскной азарт Самохина, увлеченного своей профессией, его честность, харизма и преданность делу постепенно меняют атмосферу в отделе... Ко всему прочему, на плечи оперов ложатся все более сложные задачи. Расследование убийства якута , за которым кроется алмазная афера и производство фальшивых денег – лишь начало. Операм под руководством Самохина предстоит раскрыть еще более изощренные преступления.
Качество видео: SatRip

Продолжительность: 00:46:04 х 16 серий

Формат: AVI
Видео: XviD, 704x416, 1470 kbps
Аудио: русский, оригинал, MP3 2.0, 192 kbps

Код:

D:\СКАЧКИ\С underverse\Opergruppa-2\Opergruppa-2.02.2012.SATRip.KinozalSAT.avi
   General
      Complete name : D:\СКАЧКИ\С underverse\Opergruppa-2\Opergruppa-2.02.2012.SATRip.KinozalSAT.avi
      Format : AVI
      Format/Info : Audio Video Interleave
      File size : 550 MiB
      Duration : 46mn 4s
      Overall bit rate : 1 669 Kbps
      Writing application : VirtualDubMod 1.5.4.1 (build 2178/release)
      Writing library : VirtualDubMod build 2178/release
   Video #0
      ID : 0
      Format : MPEG-4 Visual
      Format profile : Advanced Simple@L5
      Format settings, BVOP : Yes
      Format settings, QPel : No
      Format settings, GMC : No warppoints
      Format settings, Matrix : Custom
      Codec ID : XVID
      Codec ID/Hint : XviD
      Duration : 46mn 4s
      Bit rate : 1 470 Kbps
      Width : 704 pixels
      Height : 416 pixels
      Display aspect ratio : 1.692
      Frame rate : 25.000 fps
      Color space : YUV
      Chroma subsampling : 4:2:0
      Bit depth : 8 bits
      Scan type : Progressive
      Bits/(Pixel*Frame) : 0.201
      Stream size : 484 MiB (88%)
      Writing library : XviD 64
   Audio #1
      ID : 1
      Format : MPEG Audio
      Format version : Version 1
      Format profile : Layer 3
      Mode : Joint stereo
      Mode extension : MS Stereo
      Codec ID : 55
      Codec ID/Hint : MP3
      Duration : 46mn 4s
      Bit rate mode : Constant
      Bit rate : 192 Kbps
      Channel(s) : 2 channels
      Sampling rate : 48.0 KHz
      Stream size : 63.3 MiB (12%)
      Alignment : Aligned on interleaves
      Interleave, duration : 80 ms (2.00 video frames)
      Interleave, preload duration : 504 ms
      Writing library : LAME3.97
      Encoding settings : -m j -V 4 -q 2 -lowpass 18.6 -b 192
Семпл: http://multi-up.com/738509

picpicpicpicpicpicpicpicpicpicpicpic
Для увеличения картинки щелкните мышкой по превью

Этот торрент недоступен для скачивания без регистрации, однако доступен по публичной magnet-ссылке (источники с публичных трекеров). Перед использованием ссылки прочтите, пожалуйста Пользовательское соглашение, а также как можно дольше оставайтесь на раздаче! Для того, чтобы скачать сам торрент-файл (который видит больше источников), а также для того, чтобы поблагодарить релизера, вам необходимо зарегистрироваться. Если регистрироваться лень - вы можете также попробовать скачать релиз по нашим партнерским ссылкам ниже.

[underverse.su].t18962.torrent
Трекер: Зарегистрирован   [ 27.07.2012 16:15 ]  

Статус: проверено (by Паукан at 27.07.2012 20:28)
Поблагодарили: пока никто не поблагодарил...
Тип торрента: публичный - доступные источники с открытых трекеров: 
Размер: 8,59 GB (занимает 1,96 DVDR, для записи нужно 2 болванки DVDR/RW)
 
 
Похожие темы
Форум Тема Автор Торрент Отв. Посл. сооб.
xUSSR сериалы Опергруппа / Сезон: 1 Серии: 1-12 из 12 (Леонид Пляскин) [2009 г., криминальный, SATRip] nemos
0 | 0

1 | 1014

6

28.07.2012 07:45


Яндекс.Метрика powered by Sphinx


В Н И М А Н И Е
Сайт не распространяет и не хранит электронные версии произведений, а лишь бесплатно и без коммерческой выгоды (не требуя взамен платы,
SMS и т.д.) предоставляет доступ к создаваемому пользователями каталогу ссылок на торрент-файлы, которые содержат только списки хеш-сумм.
Убедительная просьба с жалобами обращаться напрямую к пользователю, разместившему торрент файл.

Вверх