Loading...
Error

Верю [1-8 серии из 8] (Александра Бутько) [2012, драма, мелодрама, SATRip]

Статистика раздачи
Размер:  4,3 GB   |    Зарегистрирован:  4 года 4 месяца   |    Скачан:  0 раз

Полного источника не было: 2 года

Сидов:  0  |  0 KB/s  ]   Личеров:  0  |  0 KB/s  ]

* - сиды/пиры с внешних источников

   
 
Автор Сообщение

nemos Пол:Муж

27-Июл-2012 14:24

Верю (1-8 серии из 8)


Год выпуска: 2012
Жанр: драма, мелодрама
Страна: Россия
Режиссер: Александра Бутько
В ролях: Григорий Антипенко, Екатерина Вилкова, Вера Васильева, Юрий Кузнецов, Кирилл Жандаров, Евгения Осипова, Юлия Галкина, Александр Ильин мл., Алексей Ильин, Дмитрий Муляр
Сюжет фильма:
Анна — отзывчивая девушка, заботливая мама и талантливый педагог. Но внезапно все, что ей было дорого в жизни, исчезает. Ее увольняют из института, несмотря на то, что совсем недавно она считалась одним из лучших преподавателей. Ее бывший муж — алкоголик Коля случайно поджигает квартиру, в которой она жила с мамой Полиной Евгеньевной и дочкой Дашей. Мама, попав после пожара в больницу, умирает. Так в одночасье Анна остается с ребенком на руках, без квартиры и без работы.

Анну вместе с дочкой решает приютить Анна Федоровна — бабушка ее лучшего друга Ивана Гурьева. Она мечтает, чтобы Иван поскорее женился. Но в планы внука женитьба не входит. Он полностью посвящает себя любимой работе, а свободное время проводит с моделью Викой.

Анна влюблена в Ивана с самого детства, но он видит в ней только друга. Именно поэтому за много лет она так и не решилась признаться в своих чувствах. Но, несмотря ни на что, Анне отчаянно хочется верить, что однажды Иван все-таки сможет разглядеть в ней свою истинную любовь.


Качество видео: SatRip

Продолжительность: 8 х ~ 00:42:00

Формат: AVI
Видео: XviD, 720x400, 1565 kbps
Аудио: русский, оригинал, MP3 2.0, 192 kbps

Код:

D:\СКАЧКИ\КИНОЗАЛ тв\ФИЛЬМЫ\Veryu.(1-8.serii.iz.8).2012.XviD.SATRip.files-x\Veryu.(2.seriya.iz.8).2012.XviD.SATRip.files-x.avi
   General
      Complete name : D:\СКАЧКИ\КИНОЗАЛ тв\ФИЛЬМЫ\Veryu.(1-8.serii.iz.8).2012.XviD.SATRip.files-x\Veryu.(2.seriya.iz.8).2012.XviD.SATRip.files-x.avi
      Format : AVI
      Format/Info : Audio Video Interleave
      File size : 550 MiB
      Duration : 43mn 31s
      Overall bit rate : 1 767 Kbps
      Writing application : VirtualDubMod 1.5.10.3 | www.virtualdub-fr.org || (build 2550/release)
      Writing library : VirtualDubMod build 2550/release
   Video #0
      ID : 0
      Format : MPEG-4 Visual
      Format profile : Advanced Simple@L5
      Format settings, BVOP : Yes
      Format settings, QPel : No
      Format settings, GMC : No warppoints
      Format settings, Matrix : Default (H.263)
      Codec ID : XVID
      Codec ID/Hint : XviD
      Duration : 43mn 31s
      Bit rate : 1 565 Kbps
      Width : 720 pixels
      Height : 400 pixels
      Display aspect ratio : 16:9
      Frame rate : 25.000 fps
      Color space : YUV
      Chroma subsampling : 4:2:0
      Bit depth : 8 bits
      Scan type : Progressive
      Bits/(Pixel*Frame) : 0.217
      Stream size : 487 MiB (89%)
      Writing library : XviD 1.2.1 (UTC 2008-12-04)
   Audio #1
      ID : 1
      Format : MPEG Audio
      Format version : Version 1
      Format profile : Layer 3
      Codec ID : 55
      Codec ID/Hint : MP3
      Duration : 43mn 31s
      Bit rate mode : Constant
      Bit rate : 192 Kbps
      Channel(s) : 2 channels
      Sampling rate : 48.0 KHz
      Stream size : 59.8 MiB (11%)
      Alignment : Aligned on interleaves
      Interleave, duration : 40 ms (1.00 video frame)
      Interleave, preload duration : 504 ms
      Writing library : LAME3.98r
      Encoding settings : -m s -V 4 -q 2 -lowpass 18.6 -b 192
Семпл: http://multi-up.com/738462

picpicpicpicpicpicpicpicpicpic
Для увеличения картинки щелкните мышкой по превью

Этот торрент недоступен для скачивания без регистрации, однако доступен по публичной magnet-ссылке (источники с публичных трекеров). Перед использованием ссылки прочтите, пожалуйста Пользовательское соглашение, а также как можно дольше оставайтесь на раздаче! Для того, чтобы скачать сам торрент-файл (который видит больше источников), а также для того, чтобы поблагодарить релизера, вам необходимо зарегистрироваться. Если регистрироваться лень - вы можете также попробовать скачать релиз по нашим партнерским ссылкам ниже.

[underverse.su].t18957.torrent
Трекер: Зарегистрирован   [ 27.07.2012 14:24 ]  

Статус: проверено (by Паукан at 27.07.2012 20:35)
Поблагодарили: пока никто не поблагодарил...
Тип торрента: публичный - доступные источники с открытых трекеров: 
Размер: 4,3 GB (занимает 0,98 DVDR, для записи нужно 1 болванка DVDR/RW)
 
 


Последний раз редактировалось: nemos (27.07.2012 15:18), всего редактировалось 1 раз

Яндекс.Метрика powered by Sphinx


В Н И М А Н И Е
Сайт не распространяет и не хранит электронные версии произведений, а лишь бесплатно и без коммерческой выгоды (не требуя взамен платы,
SMS и т.д.) предоставляет доступ к создаваемому пользователями каталогу ссылок на торрент-файлы, которые содержат только списки хеш-сумм.
Убедительная просьба с жалобами обращаться напрямую к пользователю, разместившему торрент файл.

Вверх