Loading...
Error

Темный рыцарь / The Dark Knight [IMAX] (Кристофер Нолан) [2008 г., фантастика, боевик, триллер, криминал, HDRip] (Rus, Ukr, Eng) HQ Underverse

Статистика раздачи
Размер:  2,9 GB   |    Зарегистрирован:  4 года 4 месяца   |    Скачан:  48 раз
Сидов:  1  |  0 KB/s  ]   Личеров:  0  |  0 KB/s  ]

* - сиды/пиры с внешних источников

   
 
Автор Сообщение

HQ Underverse 

27-Июл-2012 11:15

Темный рыцарь / The Dark Knight [IMAX]


Год выпуска: 2008
Жанр: фантастика, боевик, триллер, криминал
Страна: США
Режиссер: Кристофер Нолан
В ролях: Кристиан Бэйл, Хит Леджер, Аарон Экхарт, Мэгги Джилленхол, Гари Олдман, Майкл Кейн, Морган Фриман, Чин Хань, Нестор Карбонелл, Эрик Робертс
Сюжет фильма:
Бэтмен поднимает ставки в войне с криминалом. С помощью лейтенанта Джима Гордона и прокурора Харви Дента он намерен очистить улицы от преступности, отравляющей город. Сотрудничество оказывается эффективным, но скоро они обнаружат себя посреди хаоса, развязанного восходящим криминальным гением, известным испуганным горожанам под именем Джокер.

  • Мировая премьера: 14 июля 2008
  • Российская премьера: 14 августа 2008, «Каро-Премьер»

|
Качество видео: HDRip

Продолжительность: 02:32:13

Формат: avi
Видео: XviD, 720x400, 1819 kbps
Аудио #1: русский, дублированный [лицензия], AC3 5.1, 448 kbps
Аудио #2: английский, оригинал, AC3 5.1, 448 kbps
Аудио #3: украинский, дублированный [лицензия], AC3 5.1, 448 kbps (отдельным файлом: здесь)
Субтитры #1: внешние, SRT, английский (на narod.ru)
Субтитры #2: внешние, SRT, русский (на narod.ru)
Субтитры #3: внешние, SRT, украинский (на narod.ru)

Код:

General
Complete name                    : \\Servak\d\Видео\HQ\Темный Рыцарь\Dark.Knight.2008.HDRip.XviD.AC3.Rus.D.Eng.O.HQ.Underverse.avi
Format                           : AVI
Format/Info                      : Audio Video Interleave
Format profile                   : OpenDML
File size                        : 2.90 GiB
Duration                         : 2h 32mn
Overall bit rate                 : 2 732 Kbps
Writing application              : VirtualDubMod 1.5.10.2 (build 2542/release)
Writing library                  : VirtualDubMod build 2542/release

Video
ID                               : 0
Format                           : MPEG-4 Visual
Format profile                   : Streaming Video@L1
Format settings, BVOP            : Yes
Format settings, QPel            : No
Format settings, GMC             : No warppoints
Format settings, Matrix          : Custom
Muxing mode                      : Packed bitstream
Codec ID                         : XVID
Codec ID/Hint                    : XviD
Duration                         : 2h 32mn
Bit rate                         : 1 820 Kbps
Width                            : 720 pixels
Height                           : 400 pixels
Display aspect ratio             : 16/9
Frame rate                       : 23.976 fps
Resolution                       : 24 bits
Colorimetry                      : 4:2:0
Scan type                        : Progressive
Bits/(Pixel*Frame)               : 0.264
Stream size                      : 1.94 GiB (67%)
Writing library                  : XviD 64

Audio #1
ID                               : 1
Format                           : AC-3
Format/Info                      : Audio Coding 3
Codec ID                         : 2000
Duration                         : 2h 32mn
Bit rate mode                    : Constant
Bit rate                         : 448 Kbps
Channel(s)                       : 6 channels
Channel positions                : Front: L C R, Surround: L R, LFE
Sampling rate                    : 48.0 KHz
Stream size                      : 488 MiB (16%)
Alignment                        : Split accross interleaves
Interleave, duration             : 42 ms (1.00 video frame)
Interleave, preload duration     : 500 ms

Audio #2
ID                               : 2
Format                           : AC-3
Format/Info                      : Audio Coding 3
Codec ID                         : 2000
Duration                         : 2h 32mn
Bit rate mode                    : Constant
Bit rate                         : 448 Kbps
Channel(s)                       : 6 channels
Channel positions                : Front: L C R, Surround: L R, LFE
Sampling rate                    : 48.0 KHz
Stream size                      : 488 MiB (16%)
Alignment                        : Split accross interleaves
Interleave, duration             : 42 ms (1.00 video frame)
Interleave, preload duration     : 500 ms

Релиз группы:

picpicpic
Для увеличения картинки щелкните мышкой по превью

Этот торрент недоступен для скачивания без регистрации, однако доступен по публичной magnet-ссылке (источники с публичных трекеров). Перед использованием ссылки прочтите, пожалуйста Пользовательское соглашение, а также как можно дольше оставайтесь на раздаче! Для того, чтобы скачать сам торрент-файл (который видит больше источников), а также для того, чтобы поблагодарить релизера, вам необходимо зарегистрироваться. Если регистрироваться лень - вы можете также попробовать скачать релиз по нашим партнерским ссылкам ниже.

[underverse.su].t18955.torrent
Трекер: Зарегистрирован   [ 27.07.2012 11:15 ]  

Статус: проверено (by Паукан at 27.07.2012 11:22)
Поблагодарили: 2 человека
Тип торрента: публичный - доступные источники с открытых трекеров: 
Размер: 2,9 GB (занимает 2/3 DVDR, для записи нужно 1 болванка DVDR/RW)
 
 
Похожие темы
Форум Тема Автор Торрент Отв. Посл. сооб.
Зарубежное кино [DVDRip, Low-Res HDRip, и т.д.] Темный рыцарь / The Dark Knight (Кристофер Нолан) [2008, Фантастика, боевик, триллер, криминал, BDRip-AVC] Dub (CEE) + Original (Eng) + Subs (Rus, Eng) Garnett
0 | 0

0 | 849

22

22.12.2012 18:00

Зарубежное кино [DVDRip, Low-Res HDRip, и т.д.] Тёмный рыцарь: Трилогия / The Dark Knight: Trilogy (Кристофер Нолан) США [2005/2008/2012 г., Фантастика, боевик, триллер, криминал, BDRip 1080p] nemos
1 | 0

1 | 3333

13

03.10.2013 07:01

Зарубежное кино [DVDRip, Low-Res HDRip, и т.д.] Темный рыцарь / The Dark Knight (Кристофер Нолан / Christopher Nolan) [2008 г., фантастика, боевик, триллер, криминал, BDRip-AVC] Dub + Original + MVO + AVO + VO garry
1 | 0

0 | 808

12

22.02.2014 20:40

Зарубежное кино HQ Темный рыцарь: Возрождение легенды / The Dark Knight Rises (Кристофер Нолан) [2012 г., фантастика, боевик, триллер, драма, криминал, BDRip] Dub (Rus,Ukr) + Original + Sub (Rus,Eng) HQ Underverse HQ Underverse
1 | 0

5 | 1899

170

05.12.2012 17:50

Мультфильмы HQ Темный рыцарь: Возрождение легенды. Часть 1 / Batman: The Dark Knight Returns, Part 1 (Джей Олива) [2012 г., мультфильм, боевик, BDRip] Dub + Original + Subs (Rus,Eng) HQ Underverse HQ Underverse
1 | 0

0 | 1628

33

11.12.2012 20:57

Мультфильмы HQ Темный рыцарь: Возрождение легенды. Часть 2 / Batman: The Dark Knight Returns, Part 2 (Джей Олива) [2013 г., мультфильм, боевик, BDRip] Dub + Original HQ Underverse HQ Underverse
0 | 0

2 | 2053

22

13.02.2013 10:35

Зарубежные мультфильмы Темный рыцарь: Возрождение легенды. Часть 2 / Batman: The Dark Knight Returns, Part 2 (Джей Олива) [2013 г., мультфильм, боевик, HDRip] Dub + Eng 90ytr90
3 | 0

1 | 705

17

28.03.2013 11:54

Зарубежные мультфильмы Темный рыцарь: Возрождение легенды. Часть 2 / Batman: The Dark Knight Returns, Part 2 (Джей Олива) [2013 г., мультфильм, боевик, HDRip] Dub 90ytr90
1 | 0

0 | 643

6

17.01.2013 17:07

Зарубежное кино [DVD / HDDVD / BD / Remux] Темный рыцарь / The Dark Knight (Кристофер Нолан) [2008 г., фантастика, боевик, триллер, криминал, DVD-9] garry
1 | 0

0 | 1012

1

10.09.2012 11:47

Зарубежное кино [DVD / HDDVD / BD / Remux] Темный рыцарь / The Dark Knight (Кристофер Нолан / Christopher Nolan) [2008, США, боевик, приключения, драма, криминал, BDRemux 1080p] Dub + MVO + 3x AVO + 2x VO + Original eng + Sub rus, eng uzi2009
35 | 0

0 | 909

4

27.05.2014 11:48


Яндекс.Метрика powered by Sphinx


В Н И М А Н И Е
Сайт не распространяет и не хранит электронные версии произведений, а лишь бесплатно и без коммерческой выгоды (не требуя взамен платы,
SMS и т.д.) предоставляет доступ к создаваемому пользователями каталогу ссылок на торрент-файлы, которые содержат только списки хеш-сумм.
Убедительная просьба с жалобами обращаться напрямую к пользователю, разместившему торрент файл.

Вверх