Loading...
Error

Папаши без вредных привычек / On ne choisit pas sa famille (Кристиан Клавье) [2011 г., комедия, приключения, HDRip] (Rus, Fra) HQ Underverse

Статистика раздачи
Размер:  2,17 GB   |    Зарегистрирован:  4 года 4 месяца   |    Скачан:  43 раза

Полного источника не было: 1 месяц 13 дней

Сидов:  0  |  0 KB/s  ]   Личеров:  0  |  0 KB/s  ]

* - сиды/пиры с внешних источников

   
 
Автор Сообщение

HQ Underverse 

25-Июл-2012 19:05

Папаши без вредных привычек / On ne choisit pas sa famille


Год выпуска: 2011
Жанр: комедия, приключения
Страна: Франция
Режиссер: Кристиан Клавье
В ролях: Кристиан Клавье, Жан Рено, Мюриэль Робен, Элена Ногуэрра, Мишель Вюйермоз, Майли Флорентин Дао, Хелен Патаро, Анна Гейлор, Кэролайн Англаде, Софи-Шарлотт Хассон
Сюжет фильма:
Алекс хочет удочерить очаровательную 5 — летнюю малышку Майли, которая живет в Таиланде. Но по законам этой страны приёмные родители должны быть официально зарегистрированной супружеской парой. Алекс подбивает своего брата, Сезара Борньоли, разорившегося автомобильного дилера, на аферу: он должен поехать с супругой Алекс, Ким в Таиланд, изображая её супруга, что бы забрать оттуда девочку.

Но трудно найти более непохожих людей, чем Ким и Сезар. А доктор Луиш, опекун девочки, начинает подозревать неладное…

  • Мировая премьера: 9 ноября 2011
  • Российская премьера: 7 июня 2012, «Каскад»

|
Качество видео: HDRip

Продолжительность: 01:41:26

Формат: avi
Видео: XviD, 720x304, 2278 kbps
Аудио #1: русский, дублированный [лицензия], AC3 5.1, 384 kbps
Аудио #2: французский, оригинал, AC3 5.1, 384 kbps
Субтитры: внешние, SRT, русский (на narod.ru)

Код:

General
Complete name                    : \\Servak\d\Видео\HQ\Папаши без вредных привычек\On.ne.choisit.pas.sa.famille.2012.HDRip.XviD.AC3.Rus.D.Fra.O.HQ.Underverse.avi
Format                           : AVI
Format/Info                      : Audio Video Interleave
Format profile                   : OpenDML
File size                        : 2.17 GiB
Duration                         : 1h 41mn
Overall bit rate                 : 3 064 Kbps
Writing application              : VirtualDubMod 1.5.10.2 (build 2542/release)
Writing library                  : VirtualDubMod build 2542/release

Video
ID                               : 0
Format                           : MPEG-4 Visual
Format profile                   : Streaming Video@L1
Format settings, BVOP            : Yes
Format settings, QPel            : No
Format settings, GMC             : No warppoints
Format settings, Matrix          : Custom
Muxing mode                      : Packed bitstream
Codec ID                         : XVID
Codec ID/Hint                    : XviD
Duration                         : 1h 41mn
Bit rate                         : 2 278 Kbps
Width                            : 720 pixels
Height                           : 304 pixels
Display aspect ratio             : 2.35
Frame rate                       : 23.976 fps
Resolution                       : 24 bits
Colorimetry                      : 4:2:0
Scan type                        : Progressive
Bits/(Pixel*Frame)               : 0.434
Stream size                      : 1.61 GiB (74%)
Writing library                  : XviD 64

Audio #1
ID                               : 1
Format                           : AC-3
Format/Info                      : Audio Coding 3
Codec ID                         : 2000
Duration                         : 1h 41mn
Bit rate mode                    : Constant
Bit rate                         : 384 Kbps
Channel(s)                       : 6 channels
Channel positions                : Front: L C R, Surround: L R, LFE
Sampling rate                    : 48.0 KHz
Stream size                      : 279 MiB (13%)
Alignment                        : Split accross interleaves
Interleave, duration             : 42 ms (1.00 video frame)
Interleave, preload duration     : 500 ms

Audio #2
ID                               : 2
Format                           : AC-3
Format/Info                      : Audio Coding 3
Codec ID                         : 2000
Duration                         : 1h 41mn
Bit rate mode                    : Constant
Bit rate                         : 384 Kbps
Channel(s)                       : 6 channels
Channel positions                : Front: L C R, Surround: L R, LFE
Sampling rate                    : 48.0 KHz
Stream size                      : 279 MiB (13%)
Alignment                        : Split accross interleaves
Interleave, duration             : 42 ms (1.00 video frame)
Interleave, preload duration     : 500 ms

Релиз группы:
picpicpic
Для увеличения картинки щелкните мышкой по превью

Этот торрент недоступен для скачивания без регистрации, однако доступен по публичной magnet-ссылке (источники с публичных трекеров). Перед использованием ссылки прочтите, пожалуйста Пользовательское соглашение, а также как можно дольше оставайтесь на раздаче! Для того, чтобы скачать сам торрент-файл (который видит больше источников), а также для того, чтобы поблагодарить релизера, вам необходимо зарегистрироваться. Если регистрироваться лень - вы можете также попробовать скачать релиз по нашим партнерским ссылкам ниже.

[underverse.su].t18928.torrent
Трекер: Зарегистрирован   [ 25.07.2012 19:05 ]  

Статус: проверено (by Паукан at 25.07.2012 20:39)
Поблагодарили: 2 человека
Тип торрента: публичный - доступные источники с открытых трекеров: 
Размер: 2,17 GB (занимает 1/2 DVDR, для записи нужно 1 болванка DVDR/RW)
 
 
Похожие темы
Форум Тема Автор Торрент Отв. Посл. сооб.
Зарубежное кино [DVDRip, Low-Res HDRip, и т.д.] Папаши без вредных привычек / On ne choisit pas sa famille (Кристиан Клавье) [2011 г., комедия, приключения, DVDRip] RG NewCinema
0 | 0

1 | 431

43

08.07.2012 10:19


Яндекс.Метрика powered by Sphinx


В Н И М А Н И Е
Сайт не распространяет и не хранит электронные версии произведений, а лишь бесплатно и без коммерческой выгоды (не требуя взамен платы,
SMS и т.д.) предоставляет доступ к создаваемому пользователями каталогу ссылок на торрент-файлы, которые содержат только списки хеш-сумм.
Убедительная просьба с жалобами обращаться напрямую к пользователю, разместившему торрент файл.

Вверх