Loading...
Error

Жестокий / Brutal (Камаль Ахмед) [2012 г., криминал, IPTVRip]

Статистика раздачи
Размер:  1,37 GB   |    Зарегистрирован:  4 года 4 месяца   |    Скачан:  16 раз

Полного источника не было: 2 года

Сидов:  0  |  0 KB/s  ]   Личеров:  0  |  0 KB/s  ]

* - сиды/пиры с внешних источников

   
 
Автор Сообщение

nemos Пол:Муж

25-Июл-2012 15:27

Жестокий / Brutal


Год выпуска: 2012
Жанр: криминал
Страна: США
Режиссер: Камаль Ахмед
В ролях: Натали Аллен, Rosario Aveni, Krista Ayne, Джо Беретта, Игги Берлин, Анджело Бонсигнор, Рита Боске, Al Burgo, Федерико Кастеллуччо, Алекс Коррадо
Сюжет фильма:
Четверо безработных парней из Бруклина затевают перепалку с пассажирами автомобиля, перегородившего им проезд. Один из пассажиров оказывается сборщиком денег для мафии, и очень скоро друзьям приходится горько пожалеть об инциденте…

  • Мировая премьера: 20 августа 2012

Качество видео: IPTVRip

Продолжительность: 01:29:36

Формат: AVI
Видео: XviD, 720 x 400 , 1984 kbps
Аудио: многоголосый закадровый (профессиональный), AC3 2.0, 384 kbps

Код:

Полное имя                               : G:\000 Фильмы\Жестокий  Brutal (2012IPTVRip)\Zhestkij.2012.P.IPTVRip.1400MB.NNM-CLUB.avi
Формат                                   : AVI
Формат/Информация                        : Audio Video Interleave
Размер файла                             : 1,37 Гбайт
Продолжительность                        : 1 ч. 29 м.
Общий поток                              : 2185 Кбит/сек
Название фильма                          : Brutal (2012)
Режиссёр                                 : D!mka
Жанр                                     : Action
Программа кодирования                    : VirtualDubMod 1.5.10.2 (build 2540/release)
Формат оригинала/Имя                     : Movie
Правообладатель                          : http://torrentsmd.com/

Видео
Идентификатор                            : 0
Формат                                   : MPEG-4 Visual
Профиль формата                          : Advanced Simple@L5
Параметр BVOP формата                    : 1
Параметр QPel формата                    : Нет
Параметр GMC формата                     : Без точки перехода
Параметр матрицы формата                 : Default (MPEG)
Идентификатор кодека                     : XVID
Идентификатор кодека/Подсказка           : XviD
Продолжительность                        : 1 ч. 29 м.
Битрейт                                  : 1984 Кбит/сек
Ширина                                   : 720 пикселей
Высота                                   : 400 пикселей
Соотношение сторон                       : 16:9
Частота кадров                           : 25,000 кадров/сек
Цветовое пространство                    : YUV
Субдискретизация насыщенности            : 4:2:0
Битовая глубина                          : 8 бит
Тип развёртки                            : Прогрессивная
Метод сжатия                             : С потерями
Бит/(Пиксели*Кадры)                      : 0.276
Размер потока                            : 1,24 Гбайт (91%)
Библиотека кодирования                   : XviD 1.2.1 (UTC 2008-12-04)

Аудио
Идентификатор                            : 1
Формат                                   : AC-3
Формат/Информация                        : Audio Coding 3
Расширение режима                        : CM (complete main)
Параметр Endianness формата              : Big
Идентификатор кодека                     : 2000
Продолжительность                        : 1 ч. 29 м.
Вид битрейта                             : Постоянный
Битрейт                                  : 192 Кбит/сек
Каналы                                   : 2 канала
Расположение каналов                     : Front: L R
Частота                                  : 48,0 КГц
Битовая глубина                          : 16 бит
Метод сжатия                             : С потерями
Задержка видео                           : 20 мс.
Размер потока                            : 123 Мбайт (9%)
Выравнивание                             : Разделение по промежуткам
Продолжительность промежутка             : 40  мс. (1,00 видеокадр)
Время предзагрузки промежутка            : 500  мс.
Семпл: http://multi-up.com/737593

picpicpicpicpicpicpicpicpicpic
Для увеличения картинки щелкните мышкой по превью

Этот торрент недоступен для скачивания без регистрации, однако доступен по публичной magnet-ссылке (источники с публичных трекеров). Перед использованием ссылки прочтите, пожалуйста Пользовательское соглашение, а также как можно дольше оставайтесь на раздаче! Для того, чтобы скачать сам торрент-файл (который видит больше источников), а также для того, чтобы поблагодарить релизера, вам необходимо зарегистрироваться. Если регистрироваться лень - вы можете также попробовать скачать релиз по нашим партнерским ссылкам ниже.

[underverse.su].t18920.torrent
Трекер: Зарегистрирован   [ 25.07.2012 15:27 ]  

Статус: проверено (by garry at 26.07.2012 05:30)
Поблагодарили: пока никто не поблагодарил...
Тип торрента: публичный - доступные источники с открытых трекеров: 
Размер: 1,37 GB (занимает 0,31 DVDR, для записи нужно 1 болванка DVDR/RW)
 
 
Похожие темы
Форум Тема Автор Торрент Отв. Посл. сооб.
Зарубежное кино [DVDRip, Low-Res HDRip, и т.д.] Жестокий / Brutal (Камаль Ахмед) [2011 г., криминал, HDRip] bredd82
0 | 0

0 | 730

11

05.05.2013 06:09



Последний раз редактировалось: nemos (25.07.2012 19:14), всего редактировалось 12 раз(а)

garry Пол:Муж

25-Июл-2012 15:57

Цитата:

Жестокий / Brutal (2012) TVRip (Камаль Ахмед)
Русское название / Оригинальное название (режиссер на русском) [год, жанр, качество рипа]

Цитата:

Аудио: многоголосый закадровый (профессиональный), AC3 2.0, 192 Кбит/сек
странно, а медиаинфо говорит 384...

добавлено спустя 1 минута 29 секунд:

Цитата:

Zhestkij.2012.P.IPTVRip.1400MB.NNM-CLUB.avi
точно релиз Кинозал.тв?

Яндекс.Метрика powered by Sphinx


В Н И М А Н И Е
Сайт не распространяет и не хранит электронные версии произведений, а лишь бесплатно и без коммерческой выгоды (не требуя взамен платы,
SMS и т.д.) предоставляет доступ к создаваемому пользователями каталогу ссылок на торрент-файлы, которые содержат только списки хеш-сумм.
Убедительная просьба с жалобами обращаться напрямую к пользователю, разместившему торрент файл.

Вверх