Loading...
Error

Царь скорпионов / The Scorpion King (Чак Рассел) [2002 г., фэнтези, боевик, триллер, мелодрама, приключения, HDRip]

Статистика раздачи
Размер:  746 MB   |    Зарегистрирован:  4 года 4 месяца   |    Скачан:  12 раз

Полного источника не было: 2 месяца 14 дней

Сидов:  0  |  0 KB/s  ]   Личеров:  0  |  0 KB/s  ]

* - сиды/пиры с внешних источников

   
 
Автор Сообщение

Greshnik Пол:Муж

24-Июл-2012 15:12

Царь скорпионов / The Scorpion King


Год выпуска: 2002
Жанр: фэнтези, боевик, триллер, мелодрама, приключения
Страна: США
Режиссер: Чак Рассел
В ролях: Дуэйн Джонсон, Стивен Брэнд, Майкл Кларк Дункан, Келли Ху, Бернард Хилл, Грант Хеслов, Питер Фачинелли, Ральф Мёллер, Брэнском Ричмонд, Роджер Рис
Сюжет фильма:
Эта история произошла 5 тыс. лет назад в Египте, еще задолго до постройки первых пирамид. Злой правитель и могущественный воин Мемнон решил поработить все народы, живущие в пустыне. Со своей многочисленной армией Мемнон выигрывает одно сражение за другим. Удача сопутствует жестокому злодею, потому что все злодеяния Мемнон совершает, опираясь на предсказания своего провидца. Осталась только горстка непокорных народов в пустыне, которые еще противостоят власти Мемнона.

Немногие оставшиеся племена нанимают воина акадца Метаеса — человека убивающего за деньги — чтобы тот убил провидца Мемнона. Оказавшись во вражеском лагере, Метаес к своему удивлению обнаруживает, что ясновидец — это красивая молодая женщина Кассандра. Он оставляет ее в живых и берет с собой в пустыню, чтобы выманить Мемнона из его города-крепости Гоморры. Единственное, что может успокоить теперь Метаеса — это смерть Мемнона…

  • Мировая премьера: 15 апреля 2002
  • Российская премьера: 19 апреля 2002, «Ист-Вест»

|
Качество видео: HDRip

Продолжительность: 01:31:29

Формат: avi
Видео: XviD, 672x288, 1003 kbps
Аудио: русский, дублированный (лицензия), MP3 2.0, 128 kbps

Код:

General
Complete name                    : F:\scorp-king.avi
Format                           : AVI
Format/Info                      : Audio Video Interleave
File size                        : 746 MiB
Duration                         : 1h 31mn
Overall bit rate                 : 1 141 Kbps
Writing application              : VirtualDubMod 1.5.10.3 | www.virtualdub-fr.org || (build 2550/release)
Writing library                  : VirtualDubMod build 2550/release

Video
ID                               : 0
Format                           : MPEG-4 Visual
Format profile                   : Streaming Video@L1
Format settings, BVOP            : Yes
Format settings, QPel            : No
Format settings, GMC             : No warppoints
Format settings, Matrix          : Custom
Codec ID                         : XVID
Codec ID/Hint                    : XviD
Duration                         : 1h 31mn
Bit rate                         : 1 003 Kbps
Width                            : 672 pixels
Height                           : 288 pixels
Display aspect ratio             : 2.35
Frame rate                       : 23.976 fps
Resolution                       : 24 bits
Colorimetry                      : 4:2:0
Scan type                        : Progressive
Bits/(Pixel*Frame)               : 0.216
Stream size                      : 657 MiB (88%)
Writing library                  : XviD 1.2.1 (UTC 2008-12-04)

Audio
ID                               : 1
Format                           : MPEG Audio
Format version                   : Version 1
Format profile                   : Layer 3
Codec ID                         : 55
Codec ID/Hint                    : MP3
Duration                         : 1h 31mn
Bit rate mode                    : Constant
Bit rate                         : 128 Kbps
Channel(s)                       : 2 channels
Sampling rate                    : 48.0 KHz
Resolution                       : 16 bits
Stream size                      : 83.7 MiB (11%)
Alignment                        : Aligned on interleaves
Interleave, duration             : 42 ms (1.00 video frame)
Interleave, preload duration     : 504 ms
Writing library                  : LAME3.98r
Encoding settings                : -m s -V 4 -q 2 -lowpass 17 -b 128

picpicpic
Для увеличения картинки щелкните мышкой по превью

Этот торрент недоступен для скачивания без регистрации, однако доступен по публичной magnet-ссылке (источники с публичных трекеров). Перед использованием ссылки прочтите, пожалуйста Пользовательское соглашение, а также как можно дольше оставайтесь на раздаче! Для того, чтобы скачать сам торрент-файл (который видит больше источников), а также для того, чтобы поблагодарить релизера, вам необходимо зарегистрироваться. Если регистрироваться лень - вы можете также попробовать скачать релиз по нашим партнерским ссылкам ниже.

[underverse.su].t18908.torrent
Трекер: Зарегистрирован   [ 24.07.2012 15:12 ]  

Статус: проверено (by WeaSel at 24.07.2012 16:54)
Поблагодарили: 1 человек
Тип торрента: публичный - доступные источники с открытых трекеров: 
Размер: 746 MB (занимает 0,17 DVDR, для записи нужно 1 болванка DVDR/RW)
 
 
Похожие темы
Форум Тема Автор Торрент Отв. Посл. сооб.
Зарубежное кино [DVDRip, Low-Res HDRip, и т.д.] Царь скорпионов: Книга мертвых / The Scorpion King 3: Battle for Redemption (Роэль Рейн) [2012 г., фэнтези, боевик, приключения, HDRip] WeaSel
0 | 0

2 | 1329

31

30.12.2011 06:50

Зарубежное кино [DVDRip, Low-Res HDRip, и т.д.] Царь скорпионов 4: Утерянный трон / The Scorpion King: The Lost Throne (Майк Эллиот) [2015 г., боевик, HDRip] MVO (BaiBaKo) 90ytr90
5 | 0

0 | 814

35

10.01.2015 13:34

Зарубежное кино [DVDRip, Low-Res HDRip, и т.д.] Царь скорпионов 4: Утерянный трон / The Scorpion King: The Lost Throne (Майк Эллиот) [2015 г., боевик, HDRip] MVO (BaiBaKo) + Original (Eng) 90ytr90
5 | 1

0 | 719

13

10.01.2015 15:20

Зарубежное кино [DVDRip, Low-Res HDRip, и т.д.] Царь скорпионов 4: Утерянный трон / The Scorpion King: The Lost Throne (Майк Эллиот / Mike Elliott) [2015 г., боевик, BDRip-AVC] MVO (BaiBaKo) 90ytr90
1 | 2

0 | 997

44

10.01.2015 20:25

T Зарубежное кино [DVDRip, Low-Res HDRip, и т.д.] Царь скорпионов 4: Утерянный трон / The Scorpion King: The Lost Throne (Майк Эллиот) [2015 г., боевик, HDRip] Dub (iTunes) 90ytr90
2 | 0

0 | 717

11

12.02.2015 03:51

T Зарубежное кино [DVDRip, Low-Res HDRip, и т.д.] Царь скорпионов 4: Утерянный трон / The Scorpion King: The Lost Throne (Майк Эллиот) [2015 г., боевик, HDRip] Dub (iTunes) + Original (Eng) 90ytr90
47 | 10

0 | 658

13

12.02.2015 05:15

Зарубежное кино [DVDRip, Low-Res HDRip, и т.д.] Царь скорпионов 4: Утерянный трон / The Scorpion King: The Lost Throne (Майк Эллиот / Mike Elliott) [2015 г., боевик, BDRip-AVC] MVO (BaiBaKo) + Original (Eng) + Sub (Eng) 90ytr90
11 | 1

0 | 732

8

21.02.2015 14:23

T Зарубежное кино [DVDRip, Low-Res HDRip, и т.д.] Царь скорпионов 4: Утерянный трон / The Scorpion King: The Lost Throne (Майк Эллиот / Mike Elliott) [2015 г., боевик, BDRip-AVC] Dub (iTunes) + Original (Eng) + Sub (Eng) 90ytr90
8 | 0

0 | 782

8

21.02.2015 14:29

Зарубежное кино HQ Царь скорпионов 3: Книга мертвых / The Scorpion King 3: Battle for Redemption (Роэль Рейн) [2011 г., фэнтези, боевик, приключения, HDRip] (Rus, Eng) HQ Underverse HQ Underverse
0 | 0

0 | 1471

10

29.01.2012 08:41

Зарубежное кино [HDDVDRip / BDRip / WEB-DL / HDTV 1080/720р] Царь скорпионов 4: Утерянный трон / The Scorpion King: The Lost Throne (Майк Эллиот / Mike Elliott) [2015 г., боевик, BDRip 720p] MVO (BaiBaKo) + Original (Eng) + Sub (Eng) 90ytr90
0 | 0

0 | 887

13

10.01.2015 13:32

lvladimir198Пол:Муж

26-Июл-2012 14:14

Пожалуй лучший из скорпионов.

Яндекс.Метрика powered by Sphinx


В Н И М А Н И Е
Сайт не распространяет и не хранит электронные версии произведений, а лишь бесплатно и без коммерческой выгоды (не требуя взамен платы,
SMS и т.д.) предоставляет доступ к создаваемому пользователями каталогу ссылок на торрент-файлы, которые содержат только списки хеш-сумм.
Убедительная просьба с жалобами обращаться напрямую к пользователю, разместившему торрент файл.

Вверх