Loading...
Error

Джон Картер / John Carter (Эндрю Стэнтон) [2012 г., фантастика, фэнтези, боевик, приключения, BDRip-AVC]

Статистика раздачи
Размер:  2,12 GB   |    Зарегистрирован:  4 года 4 месяца   |    Скачан:  94 раза

Полного источника не было: 15 часов

Сидов:  0  |  0 KB/s  ]   Личеров:  0  |  0 KB/s  ]

* - сиды/пиры с внешних источников

   
 
Автор Сообщение

Greshnik Пол:Муж

24-Июл-2012 10:54

Джон Картер / John Carter


Год выпуска: 2012
Жанр: фантастика, фэнтези, боевик, приключения
Страна: США
Режиссер: Эндрю Стэнтон
В ролях: Тейлор Китч, Линн Коллинз, Саманта Мортон, Уиллем Дефо, Томас Хейден Чёрч, Марк Стронг, Кирен Хайдз, Доминик Уэст, Джеймс Пьюрфой, Брайан Крэнстон
Сюжет фильма:
Ветеран Гражданской войны в США Джон Картер против своей воли оказывается на Марсе, где попадает в плен к воинственным четырехметровым туземцам. Картеру предстоит не только спастись самому, но и спасти принцессу Дею Торис из Гелиума.

  • Мировая премьера: 22 февраля 2012
  • Российская премьера: 8 марта 2012, «WDSSPR» 3D

|
Качество видео: BDRip-AVC

Продолжительность: 02:12:01

Формат: mkv
Видео: 1056x440 (2,40:1), 23,976 кадр/сек, 1916 Кбит/сек, 0.172 bit/pixel
Аудио: русский, дублированный (лицензия), AC3 48 kHz, AC3 Dolby Digital, 3/2 (L,C,R,l,r) + LFE ch, ~384.00 kbps avg
Субтитры: Русские, (Forced / на марсианскую абру-кадабру), английские, английские (SDH), английские (Forced)

Код:

General
Complete name                    : G:\John.Carter.2012.BDRip-AVC.mkv
Format                           : Matroska
File size                        : 1.51 GiB
Duration                         : 2h 12mn
Overall bit rate                 : 1 638 Kbps
Movie name                       : John.Carter.2012.SWESUB.FINSUB.DANISH.SUB.720p.Bluray
Encoded date                     : UTC 2012-05-21 13:48:32
Writing application              : mkvmerge v3.4.0 ('Rapunzel') сборка от May 15 2010 09:38:20
Writing library                  : libebml v0.8.0 + libmatroska v0.9.0

Video
ID                               : 1
Format                           : AVC
Format/Info                      : Advanced Video Codec
Format profile                   : High@L4.0
Format settings, CABAC           : Yes
Format settings, ReFrames        : 6 frames
Muxing mode                      : Container profile=Unknown@4.0
Codec ID                         : V_MPEG4/ISO/AVC
Duration                         : 2h 11mn
Bit rate                         : 773 Kbps
Nominal bit rate                 : 1916 Kbps
Width                            : 1056 pixels
Height                           :  440 pixels
Display aspect ratio             : 2.35
Frame rate                       : 23.976 fps
Resolution                       : 24 bits
Colorimetry                      : 4:2:0
Scan type                        : Progressive
Bits/(Pixel*Frame)               : 0.047
Stream size                      : 730 MiB (47%)
Writing library                  : x264 core 120 r2164 da19765
Encoding settings                : cabac=1 / ref=6 / deblock=1:-2:-1 / analyse=0x3:0x133 / me=umh / subme=9 / psy=1 / psy_rd=1.00:0.15 / mixed_ref=1 / me_range=16 / chroma_me=1 / trellis=2 / 8x8dct=1 / cqm=0 / deadzone=21,11 / fast_pskip=1 / chroma_qp_offset=-3 / threads=12 / sliced_threads=0 / nr=0 / decimate=1 / interlaced=0 / bluray_compat=0 / constrained_intra=0 / bframes=3 / b_pyramid=2 / b_adapt=2 / b_bias=0 / direct=3 / weightb=1 / open_gop=0 / weightp=2 / keyint=240 / keyint_min=23 / scenecut=40 / intra_refresh=0 / rc_lookahead=60 / rc=2pass / mbtree=1 / bitrate=804 / ratetol=1.0 / qcomp=0.60 / qpmin=10 / qpmax=51 / qpstep=4 / cplxblur=20.0 / qblur=0.5 / ip_ratio=1.40 / aq=1:1.00
Language                         : English

Audio #1
ID                               : 2
Format                           : AC-3
Format/Info                      : Audio Coding 3
Codec ID                         : A_AC3
Duration                         : 2h 12mn
Bit rate mode                    : Constant
Bit rate                         : 384 Kbps
Channel(s)                       : 6 channels
Channel positions                : Front: L C R, Surround: L R, LFE
Sampling rate                    : 48.0 KHz
Stream size                      : 363 MiB (23%)

Audio #2
ID                               : 3
Format                           : AC-3
Format/Info                      : Audio Coding 3
Codec ID                         : A_AC3
Duration                         : 2h 12mn
Bit rate mode                    : Constant
Bit rate                         : 448 Kbps
Channel(s)                       : 6 channels
Channel positions                : Front: L C R, Surround: L R, LFE
Sampling rate                    : 48.0 KHz
Stream size                      : 423 MiB (27%)
Language                         : English

Text
ID                               : 4
Format                           : UTF-8
Codec ID                         : S_TEXT/UTF8
Codec ID/Info                    : UTF-8 Plain Text



picpicpic
Для увеличения картинки щелкните мышкой по превью

Этот торрент недоступен для скачивания без регистрации, однако доступен по публичной magnet-ссылке (источники с публичных трекеров). Перед использованием ссылки прочтите, пожалуйста Пользовательское соглашение, а также как можно дольше оставайтесь на раздаче! Для того, чтобы скачать сам торрент-файл (который видит больше источников), а также для того, чтобы поблагодарить релизера, вам необходимо зарегистрироваться. Если регистрироваться лень - вы можете также попробовать скачать релиз по нашим партнерским ссылкам ниже.

[underverse.su].t18907.torrent
Трекер: Зарегистрирован   [ 24.07.2012 11:01 ]  

Статус: проверено (by Паукан at 24.07.2012 11:14)
Поблагодарили: 4 человека
Тип торрента: публичный - доступные источники с открытых трекеров: 
Размер: 2,12 GB (занимает 0,48 DVDR, для записи нужно 1 болванка DVDR/RW)
 
 
Похожие темы
Форум Тема Автор Торрент Отв. Посл. сооб.
Зарубежное кино [DVDRip, Low-Res HDRip, и т.д.] Джон Картер / John Carter (Эндрю Стэнтон / Andrew Stanton) [2012 г., фантастика, фэнтези, боевик, приключения, BDRip] Dub 90ytr90
9 | 1

0 | 556

27

25.04.2013 15:07

Зарубежное кино [DVDRip, Low-Res HDRip, и т.д.] Джон Картер / John Carter (Эндрю Стэнтон / Andrew Stanton) [2012 г., фантастика, фэнтези, боевик, приключения, BDRip] AVO (Гаврилов) 90ytr90
6 | 0

0 | 537

17

19.01.2014 12:03

Зарубежное кино HQ Джон Картер / John Carter (Эндрю Стэнтон) [2012 г., фантастика, фэнтези, боевик, приключения, HDRip] (Rus, Eng) HQ Underverse HQ Underverse
0 | 0

6 | 1599

158

15.06.2012 14:04

Зарубежное кино [DVD / HDDVD / BD / Remux] Джон Картер / John Carter (Эндрю Стэнтон / Andrew Stanton) [2012 г., фантастика, фэнтези, боевик, приключения., DVD-5] rjkzyec
0 | 0

7 | 793

19

19.06.2012 16:05

Зарубежное кино [DVD / HDDVD / BD / Remux] Джон Картер / John Carter (Эндрю Стэнтон / Andrew Stanton) [2012, фантастика, фэнтези, боевик, приключения, BDRemux 1080p] Dub + AVO (Гаврилов) + Dub (Ukr) + Original Eng + Sub (Rus, Eng) uzi2009
10 | 1

0 | 1206

7

14.02.2014 22:39

lvladimir198Пол:Муж

26-Июл-2012 14:13

Не зацепил...

Delion Пол:Муж

30-Сен-2012 14:10

В детстве упивался романом Берроуза "Марсиане", узнав что все же его начали снимать был очень рад, с бюджетом в 250 лимонов можно снять хорошее кино, но в результате получился какой-то Принц Персии 2 часть. В общем так себе...

NIKROLUNGER Пол:Муж

07-Июл-2013 03:04

На вкус и цвет..., как говорится. Главное, что не полное г...вно.
Фильм мне понравился. Автор - благодарю :hi:

Яндекс.Метрика powered by Sphinx


В Н И М А Н И Е
Сайт не распространяет и не хранит электронные версии произведений, а лишь бесплатно и без коммерческой выгоды (не требуя взамен платы,
SMS и т.д.) предоставляет доступ к создаваемому пользователями каталогу ссылок на торрент-файлы, которые содержат только списки хеш-сумм.
Убедительная просьба с жалобами обращаться напрямую к пользователю, разместившему торрент файл.

Вверх