Loading...
Error

Парень из Филадельфии / The Philly Kid (Джейсон Коннери) [2012 г., боевик, драма, DVDRip] DUB

Статистика раздачи
Размер:  1,46 GB   |    Зарегистрирован:  4 года 4 месяца   |    Скачан:  11 раз

Полного источника не было: 4 года

Сидов:  0  |  0 KB/s  ]   Личеров:  0  |  0 KB/s  ]

* - сиды/пиры с внешних источников

   
 
Автор Сообщение

Greshnik Пол:Муж

24-Июл-2012 10:44

Парень из Филадельфии / The Philly Kid
Год выпуска: 2012
Жанр: боевик, драма
Страна: США
Режиссер: Джейсон Коннери
В ролях: Уэс Чэтэм, Девон Сава, Сара Батлер, Нил МакДонаф, Лаки Джонсон, Крис Браунинг, Адам Мервис, Бернард Хок, Ава Богл, Эрик Скотт Вудс

  • Мировая премьера: 11 мая 2012

Качество видео: DVDRip

Продолжительность: 01:29:47

Формат: avi
Видео: XviD, 720x400, 1867 kbps
Аудио: русский, дублированный (лицензия), AC3 5.1, 448 kbps

Код:

General
Complete name                    : G:\Paren.iiz.Filadelfii.2012.P.DVDRip.IRONCLUB.avi
Format                           : AVI
Format/Info                      : Audio Video Interleave
Format settings                  : rec
File size                        : 1.46 GiB
Duration                         : 1h 29mn
Overall bit rate                 : 2 324 Kbps

Video
ID                               : 0
Format                           : MPEG-4 Visual
Format profile                   : Streaming Video@L1
Format settings, BVOP            : Yes
Format settings, QPel            : No
Format settings, GMC             : No warppoints
Format settings, Matrix          : Custom
Codec ID                         : XVID
Codec ID/Hint                    : XviD
Duration                         : 1h 29mn
Bit rate                         : 1 868 Kbps
Width                            : 720 pixels
Height                           : 400 pixels
Display aspect ratio             : 16/9
Frame rate                       : 25.000 fps
Resolution                       : 24 bits
Colorimetry                      : 4:2:0
Scan type                        : Progressive
Bits/(Pixel*Frame)               : 0.259
Stream size                      : 1.17 GiB (80%)
Writing library                  : XviD 1.2.1 (UTC 2008-12-04)

Audio
ID                               : 1
Format                           : AC-3
Format/Info                      : Audio Coding 3
Codec ID                         : 2000
Duration                         : 1h 29mn
Bit rate mode                    : Constant
Bit rate                         : 448 Kbps
Channel(s)                       : 6 channels
Channel positions                : Front: L C R, Surround: L R, LFE
Sampling rate                    : 48.0 KHz
Stream size                      : 288 MiB (19%)
Alignment                        : Aligned on interleaves
Interleave, duration             : 64 ms (1.60 video frames)
Interleave, preload duration     : 9472 ms

picpicpic
Для увеличения картинки щелкните мышкой по превью

Этот торрент недоступен для скачивания без регистрации, однако доступен по публичной magnet-ссылке (источники с публичных трекеров). Перед использованием ссылки прочтите, пожалуйста Пользовательское соглашение, а также как можно дольше оставайтесь на раздаче! Для того, чтобы скачать сам торрент-файл (который видит больше источников), а также для того, чтобы поблагодарить релизера, вам необходимо зарегистрироваться. Если регистрироваться лень - вы можете также попробовать скачать релиз по нашим партнерским ссылкам ниже.

[underverse.su].t18905.torrent
Трекер: Зарегистрирован   [ 24.07.2012 10:44 ]  

Статус: проверено (by Паукан at 24.07.2012 10:52)
Поблагодарили: 1 человек
Тип торрента: публичный - доступные источники с открытых трекеров: 
Размер: 1,46 GB (занимает 1/3 DVDR, для записи нужно 1 болванка DVDR/RW)
 
 
Похожие темы
Форум Тема Автор Торрент Отв. Посл. сооб.
Зарубежное кино [DVDRip, Low-Res HDRip, и т.д.] Парень из Филадельфии / The Philly Kid (Джейсон Коннери) [2012 г., боевик, драма, VODRip] RG NewCinema
17 | 0

0 | 358

8

03.06.2012 19:10


Яндекс.Метрика powered by Sphinx


В Н И М А Н И Е
Сайт не распространяет и не хранит электронные версии произведений, а лишь бесплатно и без коммерческой выгоды (не требуя взамен платы,
SMS и т.д.) предоставляет доступ к создаваемому пользователями каталогу ссылок на торрент-файлы, которые содержат только списки хеш-сумм.
Убедительная просьба с жалобами обращаться напрямую к пользователю, разместившему торрент файл.

Вверх