Loading...
Error

Фантомы / Shutter (Масаюки Очиай) [2008 г., ужасы, триллер, детектив,BDRip ] DUB

Статистика раздачи
Размер:  1,46 GB   |    Зарегистрирован:  4 года 4 месяца   |    Скачан:  10 раз

Полного источника не было: 1 год 10 месяцев

Сидов:  0  |  0 KB/s  ]   Личеров:  0  |  0 KB/s  ]

* - сиды/пиры с внешних источников

   
 
Автор Сообщение

Greshnik Пол:Муж

24-Июл-2012 10:33

Фантомы / Shutter


Год выпуска: 2008
Жанр: ужасы, триллер, детектив
Страна: США
Режиссер: Масаюки Очиай
В ролях: Джошуа Джексон, Рэйчел Тейлор, Мегуми Окина, Дэвид Денман, Джон Хенсли, Майя Хазен, Джеймс Кайсон Ли, Йошико Миядзаки, Кеи Ямамото, Дэйзи Беттс
Сюжет фильма:
Проявляя фотографии после несчастного случая, пара молодоженов обнаруживает на них пугающие призрачные фигуры. Опасаясь, что все это может быть взаимосвязано, супруги пытаются выяснить природу этих явлений и понимают, что лучше бы они не лезли в эти тайны.

  • Мировая премьера: 19 марта 2008
  • Российская премьера: 3 апреля 2008, «Двадцатый Век Фокс СНГ»


Продолжительность: 01:29:37

Качество: BDRip
Формат: avi
Видео: XviD, 720x384, 1871 kbps
Аудио: русский, дублированный (лицензия), AC3 5.1, 448 kbps

Код:

General
Complete name                    : E:\Fantomy.2008.UNRATED.RUS.BDRip.XviD.AC3.-HQ-ViDEO.avi
Format                           : AVI
Format/Info                      : Audio Video Interleave
File size                        : 1.46 GiB
Duration                         : 1h 29mn
Overall bit rate                 : 2 329 Kbps
Movie name                       : Фантомы / Shutter [UNRATED] (2008)
Director                         : SENATOR (BDRip 720)
Writing application              : VirtualDubMod 1.5.10.2 (build 2540/release)
Copyright                        : HQ-ViDEO (www.hq-video.ru)
Comment                          : 14.08.2008

Video
ID                               : 0
Format                           : MPEG-4 Visual
Format profile                   : Streaming Video@L1
Format settings, BVOP            : Yes
Format settings, QPel            : No
Format settings, GMC             : No warppoints
Format settings, Matrix          : Default (H.263)
Muxing mode                      : Packed bitstream
Codec ID                         : XVID
Codec ID/Hint                    : XviD
Duration                         : 1h 29mn
Bit rate                         : 1 872 Kbps
Width                            : 720 pixels
Height                           : 384 pixels
Display aspect ratio             : 1.875
Frame rate                       : 23.976 fps
Resolution                       : 24 bits
Colorimetry                      : 4:2:0
Scan type                        : Progressive
Bits/(Pixel*Frame)               : 0.282
Stream size                      : 1.17 GiB (80%)
Writing library                  : XviD 1.2.0.dev47 (UTC 2006-11-01)

Audio
ID                               : 1
Format                           : AC-3
Format/Info                      : Audio Coding 3
Codec ID                         : 2000
Duration                         : 1h 29mn
Bit rate mode                    : Constant
Bit rate                         : 448 Kbps
Channel(s)                       : 6 channels
Channel positions                : Front: L C R, Surround: L R, LFE
Sampling rate                    : 48.0 KHz
Stream size                      : 287 MiB (19%)
Alignment                        : Split accross interleaves
Interleave, duration             : 42 ms (1.00 video frame)
Interleave, preload duration     : 500 ms

picpicpicpic
Для увеличения картинки щелкните мышкой по превью

Этот торрент недоступен для скачивания без регистрации, однако доступен по публичной magnet-ссылке (источники с публичных трекеров). Перед использованием ссылки прочтите, пожалуйста Пользовательское соглашение, а также как можно дольше оставайтесь на раздаче! Для того, чтобы скачать сам торрент-файл (который видит больше источников), а также для того, чтобы поблагодарить релизера, вам необходимо зарегистрироваться. Если регистрироваться лень - вы можете также попробовать скачать релиз по нашим партнерским ссылкам ниже.

[underverse.su].t18904.torrent
Трекер: Зарегистрирован   [ 24.07.2012 10:33 ]  

Статус: проверено (by Паукан at 24.07.2012 10:42)
Поблагодарили: 1 человек
Тип торрента: публичный - доступные источники с открытых трекеров: 
Размер: 1,46 GB (занимает 1/3 DVDR, для записи нужно 1 болванка DVDR/RW)
 
 

ИРИНА83 Пол:Жен

27-Июл-2012 19:24

Спасибо раздающему. :Rose:

Яндекс.Метрика powered by Sphinx


В Н И М А Н И Е
Сайт не распространяет и не хранит электронные версии произведений, а лишь бесплатно и без коммерческой выгоды (не требуя взамен платы,
SMS и т.д.) предоставляет доступ к создаваемому пользователями каталогу ссылок на торрент-файлы, которые содержат только списки хеш-сумм.
Убедительная просьба с жалобами обращаться напрямую к пользователю, разместившему торрент файл.

Вверх