Loading...
Error

Снайпер 2. Тунгус / Серии: 1-4 из 4 (Олег Фесенко) [2012, боевик, военный фильм, SATRip] (сериал)

Статистика раздачи
Размер:  2,16 GB   |    Зарегистрирован:  4 года 4 месяца   |    Скачан:  33 раза

Полного источника не было: 2 года

Сидов:  0  |  0 KB/s  ]   Личеров:  0  |  0 KB/s  ]

* - сиды/пиры с внешних источников

   
 
Автор Сообщение

nemos Пол:Муж

23-Июл-2012 11:11

Снайпер 2. Тунгус


Год выпуска: 2012
Жанр: боевик, военный
Страна: Беларусь
Режиссер: Олег Фесенко
В ролях: Марина Александрова, Александр Лазарев мл., Светлана Павлова, Анатолий Кот, Алексей Серебряков, Гедиминас Адомайтис, Олег Вебер, Наталья Дедейко, Иван Щетко, Толепберген Байсакалов
Сюжет фильма:
1943 год. Небольшой советской диверсионной группе предстоит выполнить сложное и ответственное задание — захватить документы с последними директивами Гитлера, которые везет генералу Шернеру личный помощник адъютанта Гитлера майор Данст. Помимо опытных разведчиков участие в операции должны принять четыре девушки — выпускницы школы снайперов, и меткий стрелок, рядовой Кононов, по прозвищу Тунгус — охотник, способный превосходно ориентироваться на лесной местности. После краткой подготовки отряд направляется за линию фронта, в тыл врага. Выполняя задание, девушки-снайперы попадают в плен к генералу Шернеру, который устраивает на них настоящую охоту.


Качество видео: SatRip

Продолжительность: ~00:41:00 х 4

Формат: AVI
Видео: XviD, 688x384 , 1685 kbps
Аудио: русский, AC3 2.0, 192.00 kbps

Код:

Общее
Полное имя : C:\Documents and Settings\Администратор\Рабочий стол\Снайпер 2. Тунгус_01_SatRip_by_Drek.avi
Формат : AVI
Формат/Информация : Audio Video Interleave
Размер файла : 554 Мбайт
Продолжительность : 41 м.
Общий поток : 1887 Кбит/сек
Программа кодирования : VirtualDubMod 1.5.10.3 | www.virtualdub-fr.org || (build 2550/release)
Библиотека кодирования : VirtualDubMod build 2550/release

Видео
Идентификатор : 0
Формат : MPEG-4 Visual
Профиль формата : Advanced Simple@L5
Параметр BVOP формата : 2
Параметр QPel формата : Нет
Параметр GMC формата : Без точки перехода
Параметр матрицы формата : Default (H.263)
Идентификатор кодека : XVID
Идентификатор кодека/Подсказка : XviD
Продолжительность : 41 м.
Битрейт : 1686 Кбит/сек
Ширина : 688 пикселей
Высота : 384 пикселя
Соотношение сторон : 16:9
Частота кадров : 25,000 кадров/сек
Цветовое пространство : YUV
Субдискретизация насыщенности : 4:2:0
Битовая глубина : 8 бит
Тип развёртки : Прогрессивная
Метод сжатия : С потерями
Бит/(Пиксели*Кадры) : 0.255
Размер потока : 495 Мбайт (89%)
Библиотека кодирования : XviD 64

Аудио
Идентификатор : 1
Формат : AC-3
Формат/Информация : Audio Coding 3
Расширение режима : CM (complete main)
Идентификатор кодека : 2000
Продолжительность : 41 м.
Вид битрейта : Постоянный
Битрейт : 192 Кбит/сек
Каналы : 2 канала
Расположение каналов : Front: L R
Частота : 48,0 КГц
Битовая глубина : 16 бит
Метод сжатия : С потерями
Размер потока : 56,3 Мбайт (10%)
Выравнивание : Разделение по промежуткам
Продолжительность промежутка : 40 мс. (1,00 видеокадр)
Время предзагрузки промежутка : 500 мс.
Семпл: http://multi-up.com/736610

Релиз группы:
picpicpicpicpicpicpicpicpicpic
Для увеличения картинки щелкните мышкой по превью

Этот торрент недоступен для скачивания без регистрации, однако доступен по публичной magnet-ссылке (источники с публичных трекеров). Перед использованием ссылки прочтите, пожалуйста Пользовательское соглашение, а также как можно дольше оставайтесь на раздаче! Для того, чтобы скачать сам торрент-файл (который видит больше источников), а также для того, чтобы поблагодарить релизера, вам необходимо зарегистрироваться. Если регистрироваться лень - вы можете также попробовать скачать релиз по нашим партнерским ссылкам ниже.

[underverse.su].t18888.torrent
Трекер: Зарегистрирован   [ 23.07.2012 11:11 ]  

Статус: проверено (by garry at 23.07.2012 18:28)
Поблагодарили: пока никто не поблагодарил...
Тип торрента: публичный - доступные источники с открытых трекеров: 
Размер: 2,16 GB (занимает 0,49 DVDR, для записи нужно 1 болванка DVDR/RW)
 
 


Последний раз редактировалось: nemos (23.07.2012 16:44), всего редактировалось 1 раз

lvladimir198Пол:Муж

26-Июл-2012 14:17

Стоит посмотреть. Присутствуют интересные моменты.

Яндекс.Метрика powered by Sphinx


В Н И М А Н И Е
Сайт не распространяет и не хранит электронные версии произведений, а лишь бесплатно и без коммерческой выгоды (не требуя взамен платы,
SMS и т.д.) предоставляет доступ к создаваемому пользователями каталогу ссылок на торрент-файлы, которые содержат только списки хеш-сумм.
Убедительная просьба с жалобами обращаться напрямую к пользователю, разместившему торрент файл.

Вверх