Loading...
Error

Добро пожаловать на Север / Benvenuti al nord (Люка Миньеро) [2012 г., комедия, DVDRip]

Статистика раздачи
Размер:  1,13 GB   |    Зарегистрирован:  4 года 4 месяца   |    Скачан:  18 раз

Полного источника не было: 2 года

Сидов:  0  |  0 KB/s  ]   Личеров:  0  |  0 KB/s  ]

* - сиды/пиры с внешних источников

   
 
Автор Сообщение

nemos Пол:Муж

23-Июл-2012 08:11

Добро пожаловать на Север / Benvenuti al nord


Год выпуска: 2012
Жанр: комедия
Страна: Италия
Режиссер: Люка Миньеро
В ролях: Клаудио Бизио, Анджела Финоккьяро, Валентина Лодовини, Алессандро Сиани
Сюжет фильма:
Семьи Альберто и Маттия находятся в состоянии кризиса. Силья обожает Милан за его грязный воздух и обвиняет мужа Альберто в том, что он думает только о работе. А Маттия живет в провинциальном местечке Костельаббате с женой Марией, безалаберничает и даже не может произнести слово "Кредит". Друзья Маттии придумали полусумасшедший план - Маттия едет в Милан к Альберто, где они попытаются сработаться в одной организации - местном почтовом отделении во главе с придурковатым директором и такими же работниками. Чем все закончится? Смотрите в фильме.


Качество видео: DVDRip

Продолжительность: 01:50:04

Формат: AVI
Видео: XviD, 720x304, 1133 kbps
Аудио: русский, одноголосый закадровый, MP3 2.0, 320 kbps

Код:

Полное имя : Dobro.Pozhalovat.Na.Sever.2012.DVDRip.TornadoArt.avi
Формат : AVI
Формат/Информация : Audio Video Interleave
Размер файла : 1,13 Гбайт
Продолжительность : 1 ч. 50 м.
Общий поток : 1463 Кбит/сек
Программа кодирования : VirtualDubMod 1.5.10.2 (build 2540/release)
Библиотека кодирования : VirtualDubMod build 2540/release

Видео
Идентификатор : 0
Формат : MPEG-4 Visual
Профиль формата : Advanced Simple@L5
Параметр BVOP формата : 3
Параметр QPel формата : Нет
Параметр GMC формата : Без точки перехода
Параметр матрицы формата : Default (MPEG)
Идентификатор кодека : XVID
Идентификатор кодека/Подсказка : XviD
Продолжительность : 1 ч. 50 м.
Битрейт : 1134 Кбит/сек
Ширина : 720 пикселей
Высота : 304 пикселя
Соотношение сторон : 2,35:1
Частота кадров : 23,976 кадра/сек
Цветовое пространство : YUV
Субдискретизация насыщенности : 4:2:0
Битовая глубина : 8 бит
Тип развёртки : Прогрессивная
Метод сжатия : С потерями
Бит/(Пиксели*Кадры) : 0.216
Размер потока : 893 Мбайт (77%)
Библиотека кодирования : XviD 1.2.0.dev47 (UTC 2006-11-01)

Аудио
Идентификатор : 1
Формат : MPEG Audio
Версия формата : Version 1
Профиль формата : Layer 3
Идентификатор кодека : 55
Идентификатор кодека/Подсказка : MP3
Продолжительность : 1 ч. 50 м.
Вид битрейта : Постоянный
Битрейт : 320 Кбит/сек
Каналы : 2 канала
Частота : 48,0 КГц
Метод сжатия : С потерями
Размер потока : 252 Мбайт (22%)
Выравнивание : Соединение по промежуткам
Продолжительность промежутка : 42 мс. (1,00 видеокадр)
Время предзагрузки промежутка : 504 мс.
Семпл: http://multi-up.com/736540

Релиз группы:

picpicpicpicpicpic
Для увеличения картинки щелкните мышкой по превью

Этот торрент недоступен для скачивания без регистрации, однако доступен по публичной magnet-ссылке (источники с публичных трекеров). Перед использованием ссылки прочтите, пожалуйста Пользовательское соглашение, а также как можно дольше оставайтесь на раздаче! Для того, чтобы скачать сам торрент-файл (который видит больше источников), а также для того, чтобы поблагодарить релизера, вам необходимо зарегистрироваться. Если регистрироваться лень - вы можете также попробовать скачать релиз по нашим партнерским ссылкам ниже.

[underverse.su].t18886.torrent
Трекер: Зарегистрирован   [ 23.07.2012 08:11 ]  

Статус: проверено (by garry at 23.07.2012 09:20)
Поблагодарили: пока никто не поблагодарил...
Тип торрента: публичный - доступные источники с открытых трекеров: 
Размер: 1,13 GB (занимает 0,26 DVDR, для записи нужно 1 болванка DVDR/RW)
 
 
Похожие темы
Форум Тема Автор Торрент Отв. Посл. сооб.
Зарубежное кино [DVDRip, Low-Res HDRip, и т.д.] Добро пожаловать на борт / Bienvenue a bord (Эрик Лавэн) [2011 г., комедия, HDRip] 90ytr90
2 | 0

0 | 792

28

16.09.2012 09:02

Зарубежное кино [DVDRip, Low-Res HDRip, и т.д.] Добро пожаловать в капкан / Welcome to the Punch (Эрен Криви) [2013 г., боевик, триллер, криминал, приключения, WEB-DLRip] AVO [А. Дольский] RG NewCinema
4 | 1

0 | 3452

63

02.04.2013 11:09

Зарубежное кино [DVDRip, Low-Res HDRip, и т.д.] Добро пожаловать в мотель Бейтса / The Bates Haunting (Байрон Турк) [2012 г., ужасы, триллер, WEB-DLRip] DVO Чертёнок
1 | 0

0 | 881

13

14.08.2013 10:30

Зарубежное кино [DVDRip, Low-Res HDRip, и т.д.] Добро пожаловать в Лэйквью / Lakeview Terrace (Нил ЛаБут / Neil LaBute) [2008 г., триллер, драма, криминал, HDRip] Паукан
1 | 0

0 | 951

20

16.08.2013 14:33

Зарубежное кино [DVDRip, Low-Res HDRip, и т.д.] Добро пожаловать в капкан / Добро пожаловать в Панч / Welcome to the Punch (Эрен Криви / Eran Creevy) [2013 г., боевик, триллер, криминал, BDRip] AVO (А.Дольский) + Original 90ytr90
0 | 0

0 | 2287

30

11.10.2013 13:24

T Зарубежное кино [DVDRip, Low-Res HDRip, и т.д.] Добро пожаловать в Нью-Йорк / Welcome to New York (Абель Феррара) [2014 г., драма, WEB-DLRip] MVO Паукан
8 | 0

0 | 950

19

05.08.2014 09:45

Зарубежное кино [DVDRip, Low-Res HDRip, и т.д.] Добро пожаловать в Нью-Йорк / Welcome to New York (Абель Феррара / Abel Ferrara) [2014 г., драма, DVDRip] MVO 90ytr90
3 | 0

0 | 1026

26

22.08.2014 10:35

Зарубежное кино [DVDRip, Low-Res HDRip, и т.д.] Добро пожаловать в Нью-Йорк / Welcome to New York (Абель Феррара / Abel Ferrara) [2014 г., драма, DVDRip] MVO + Original (Eng) 90ytr90
0 | 0

0 | 1185

24

22.08.2014 10:41

Зарубежное кино [DVDRip, Low-Res HDRip, и т.д.] Добро пожаловать в Нью-Йорк / Welcome to New York (Абель Феррара) [2014 г., Драма, BDRip] MVO (RUS, Лицензия) + Original (ENG) Ведьмочка
1 | 0

1 | 853

5

13.10.2014 10:36

Зарубежное кино [DVDRip, Low-Res HDRip, и т.д.] Добро пожаловать в ПОП / Pop Redemption (Мартин Ле Галь / Martin Le Gall) [2013 г., комедия, музыка, HDRip] MVO 90ytr90
2 | 0

0 | 515

6

28.11.2014 18:43



Последний раз редактировалось: nemos (23.07.2012 09:05), всего редактировалось 1 раз

garry Пол:Муж

23-Июл-2012 08:36

Цитата:

Аудио: русский, MP3 2.0, 320 kbps
укажите какой перевод, пожалуйста...

Gerix Пол:Муж

20-Авг-2012 16:43

Легкая комедия без сюрпризов. Немного напоминает Бобро поржаловать! / Bienvenue chez les Ch'tis (Дэни Бун / Dany Boon).
Здесь Италия, а там Франция. И то и другое - не шедевры (Французский вариант поинтересней), но посмотреть можно.

Яндекс.Метрика powered by Sphinx


В Н И М А Н И Е
Сайт не распространяет и не хранит электронные версии произведений, а лишь бесплатно и без коммерческой выгоды (не требуя взамен платы,
SMS и т.д.) предоставляет доступ к создаваемому пользователями каталогу ссылок на торрент-файлы, которые содержат только списки хеш-сумм.
Убедительная просьба с жалобами обращаться напрямую к пользователю, разместившему торрент файл.

Вверх