Loading...
Error

Русская наследница / Сезон: 1 Серии: 1-8 из 8 (Дмитрий Кузьмин) [2012, Остросюжетная мелодрама, SATRip] (сериал) (Дмитрий Кузьмин) [2012 г., мелодрама, детектив, SatRip]

Статистика раздачи
Размер:  3,52 GB   |    Зарегистрирован:  4 года 4 месяца   |    Скачан:  4 раза

Полного источника не было: 2 года

Сидов:  0  |  0 KB/s  ]   Личеров:  0  |  0 KB/s  ]

* - сиды/пиры с внешних источников

   
 
Автор Сообщение

nemos Пол:Муж

23-Июл-2012 07:35

Русская наследница / Сезон: 1 Серии: 1-8 из 8 (сериал)


Год выпуска: 2012
Жанр: мелодрама, детектив
Страна: Россия
Режиссер: Дмитрий Кузьмин
В ролях: Анна Снаткина, Екатерина Вуличенко, Андрей Чернышов, Кирилл Гребенщиков, Никита Емшанов, Вадим Андреев, Наталья Гвоздикова, Юлия Такшина, Ангелина Коршунова, Арсений Мурзин
Сюжет фильма:
Катя Шебетина неожиданно получает сообщение из Америки: бывший одноклассник умер и оставил ей огромное наследство.

До этого жизнь Кати мало отличалась от жизни сотен других женщин: комнатушка в общежитии, любимый, который постоянно изменяет, вечно пьяный отец, раньше времени постаревшая мать, старшая сестра с двумя детьми. Весть о наследстве разлетается по всему городку.

Дальше события развиваются еще стремительнее. Катя узнает, что жив ее ребенок, которого она считала умершим при родах. Ему срочно нужна дорогостоящая операция — наследство придется очень кстати. Но не все так просто. Катин ухажер, уголовник Пашкин, пытается помешать ей уехать в Америку всеми возможными способами. Но ради сына Катя готова на все, даже на преступление.


Качество видео: SatRip

Продолжительность: 00:42:22 серия

Формат: AVI
Видео: XviD, 720x384 , 1283 kbps
Аудио: русский, MP3 2.0, 192.00 kbps

Код:

Общее
Полное имя : L:\Downloads\Русская наследница.2012\Russkaja.nasledniza.(1.serija.iz.8).2012.XviD.SATRip.*другой трекер*.avi
Формат : AVI
Формат/Информация : Audio Video Interleave
Размер файла : 450 Мбайт
Продолжительность : 42 м.
Общий поток : 1485 Кбит/сек
Программа кодирования : VirtualDubMod 1.5.10.2 (build 2540/release)
Библиотека кодирования : VirtualDubMod build 2540/release

Видео
Идентификатор : 0
Формат : MPEG-4 Visual
Профиль формата : Simple@L3
Параметр BVOP формата : Нет
Параметр QPel формата : Нет
Параметр GMC формата : Без точки перехода
Параметр матрицы формата : Default (H.263)
Идентификатор кодека : XVID
Идентификатор кодека/Подсказка : XviD
Продолжительность : 42 м.
Битрейт : 1284 Кбит/сек
Ширина : 720 пикселей
Высота : 384 пикселя
Соотношение сторон : 1,875
Частота кадров : 25,000 кадров/сек
Цветовое пространство : YUV
Субдискретизация насыщенности : 4:2:0
Битовая глубина : 8 бит
Тип развёртки : Прогрессивная
Метод сжатия : С потерями
Бит/(Пиксели*Кадры) : 0.186
Размер потока : 389 Мбайт (86%)
Библиотека кодирования : XviD 1.1.2 (UTC 2006-11-01)

Аудио
Идентификатор : 1
Формат : MPEG Audio
Версия формата : Version 1
Профиль формата : Layer 3
Режим : Joint stereo
Расширение режима : MS Stereo
Идентификатор кодека : 55
Идентификатор кодека/Подсказка : MP3
Продолжительность : 42 м.
Вид битрейта : Постоянный
Битрейт : 192 Кбит/сек
Каналы : 2 канала
Частота : 48,0 КГц
Метод сжатия : С потерями
Размер потока : 58,2 Мбайт (13%)
Выравнивание : Разделение по промежуткам
Продолжительность промежутка : 40 мс. (1,00 видеокадр)
Время предзагрузки промежутка : 500 мс.
Библиотека кодирования : LAME3.98
Семпл: http://multi-up.com/736526

Релиз группы:
picpicpicpicpicpicpicpic
Для увеличения картинки щелкните мышкой по превью

Этот торрент недоступен для скачивания без регистрации, однако доступен по публичной magnet-ссылке (источники с публичных трекеров). Перед использованием ссылки прочтите, пожалуйста Пользовательское соглашение, а также как можно дольше оставайтесь на раздаче! Для того, чтобы скачать сам торрент-файл (который видит больше источников), а также для того, чтобы поблагодарить релизера, вам необходимо зарегистрироваться. Если регистрироваться лень - вы можете также попробовать скачать релиз по нашим партнерским ссылкам ниже.

[underverse.su].t18885.torrent
Трекер: Зарегистрирован   [ 23.07.2012 07:35 ]  

Статус: проверено (by garry at 23.07.2012 08:34)
Поблагодарили: пока никто не поблагодарил...
Тип торрента: публичный - доступные источники с открытых трекеров: 
Размер: 3,52 GB (занимает 0,8 DVDR, для записи нужно 1 болванка DVDR/RW)
 
 

Яндекс.Метрика powered by Sphinx


В Н И М А Н И Е
Сайт не распространяет и не хранит электронные версии произведений, а лишь бесплатно и без коммерческой выгоды (не требуя взамен платы,
SMS и т.д.) предоставляет доступ к создаваемому пользователями каталогу ссылок на торрент-файлы, которые содержат только списки хеш-сумм.
Убедительная просьба с жалобами обращаться напрямую к пользователю, разместившему торрент файл.

Вверх