Loading...
Error

Фантом (Сезон: 1, 8 серий из 8) (2012) сериал (Николай Викторов) [2012 г., Боевик, шпионский фильм , SatRip]

Статистика раздачи
Размер:  4,13 GB   |    Зарегистрирован:  4 года 4 месяца   |    Скачан:  17 раз

Полного источника не было: 2 года

Сидов:  0  |  0 KB/s  ]   Личеров:  0  |  0 KB/s  ]

* - сиды/пиры с внешних источников

   
 
Автор Сообщение

nemos Пол:Муж

21-Июл-2012 14:42

Фантом (Сезон: 1, 8 серий из 8) (2012) сериал


Год выпуска: 2012
Жанр: Боевик, шпионский фильм
Страна: Россия
Режиссер: Николай Викторов
В ролях: Кирилл Гребенщиков, Дмитрий Комов, Евгений Редько, Елена Ташаева, Татьяна Лянник, Константин Тополага, Алексей Шкатов, Ирина Фролова, Евгения Каверау, Сергей Греков, Владимир Жарков и др.
Сюжет фильма:
О деятельности российских спецслужб, которые предотвратили передачу американцам секретной информации о ракетном комплексе "Ясень-М" и разоблачивших секретного агента ЦРУ по прозвищу "Фантом"


Качество видео: SatRip

Продолжительность: 00:46:00 серия

Формат: AVI
Видео: XviD, 704х384, 1515 Кбит/сек
Аудио: русский, MP3 2.0, 128 Кбит/с

Код:

Общее
Полное имя : H:\Видео-фильмы\DVDRip-фильмы\Фантом 2012\Fantom.S01.EP01.avi
Формат : AVI
Формат/Информация : Audio Video Interleave
Размер файла : 548 Мбайт
Продолжительность : 46 м.
Общий поток : 1653 Кбит/сек
Название фильма : rip by KimVlad
Программа кодирования : VirtualDubMod 1.5.10.3 (build 2550/release)
Библиотека кодирования : VirtualDubMod build 2550/release

Видео
Идентификатор : 0
Формат : MPEG-4 Visual
Профиль формата : Advanced Simple@L5
Параметр BVOP формата : 2
Параметр QPel формата : Нет
Параметр GMC формата : Без точки перехода
Параметр матрицы формата : Выборочная
Режим смешивания : Сжатый битовый поток
Идентификатор кодека : XVID
Идентификатор кодека/Подсказка : XviD
Продолжительность : 46 м.
Битрейт : 1515 Кбит/сек
Ширина : 704 пикселя
Высота : 384 пикселя
Соотношение сторон : 16:9
Частота кадров : 25,000 кадров/сек
Цветовое пространство : YUV
Субдискретизация насыщенности : 4:2:0
Битовая глубина : 8 бит
Тип развёртки : Прогрессивная
Метод сжатия : С потерями
Бит/(Пиксели*Кадры) : 0.224
Размер потока : 502 Мбайт (92%)
Библиотека кодирования : XviD 62

Аудио
Идентификатор : 1
Формат : MPEG Audio
Версия формата : Version 1
Профиль формата : Layer 3
Режим : Joint stereo
Идентификатор кодека : 55
Идентификатор кодека/Подсказка : MP3
Продолжительность : 46 м.
Вид битрейта : Постоянный
Битрейт : 128 Кбит/сек
Каналы : 2 канала
Частота : 48,0 КГц
Метод сжатия : С потерями
Размер потока : 42,4 Мбайт (8%)
Выравнивание : Разделение по промежуткам
Продолжительность промежутка : 40 мс. (1,00 видеокадр)
Время предзагрузки промежутка : 500 мс.
Семпл: http://multi-up.com/735877

Релиз группы:
picpicpicpicpicpic
Для увеличения картинки щелкните мышкой по превью

Этот торрент недоступен для скачивания без регистрации, однако доступен по публичной magnet-ссылке (источники с публичных трекеров). Перед использованием ссылки прочтите, пожалуйста Пользовательское соглашение, а также как можно дольше оставайтесь на раздаче! Для того, чтобы скачать сам торрент-файл (который видит больше источников), а также для того, чтобы поблагодарить релизера, вам необходимо зарегистрироваться. Если регистрироваться лень - вы можете также попробовать скачать релиз по нашим партнерским ссылкам ниже.

[underverse.su].t18861.torrent
Трекер: Зарегистрирован   [ 21.07.2012 14:42 ]  

Статус: проверено (by garry at 21.07.2012 15:23)
Поблагодарили: пока никто не поблагодарил...
Тип торрента: публичный - доступные источники с открытых трекеров: 
Размер: 4,13 GB (занимает 0,94 DVDR, для записи нужно 1 болванка DVDR/RW)
 
 

Яндекс.Метрика powered by Sphinx


В Н И М А Н И Е
Сайт не распространяет и не хранит электронные версии произведений, а лишь бесплатно и без коммерческой выгоды (не требуя взамен платы,
SMS и т.д.) предоставляет доступ к создаваемому пользователями каталогу ссылок на торрент-файлы, которые содержат только списки хеш-сумм.
Убедительная просьба с жалобами обращаться напрямую к пользователю, разместившему торрент файл.

Вверх