Loading...
Error

Стрелок (4 серии из 4) (2012) сериал (Арман Геворгян) [2012 г., Боевик, SatRip]

Статистика раздачи
Размер:  1,92 GB   |    Зарегистрирован:  4 года 4 месяца   |    Скачан:  18 раз

Полного источника не было: 2 года

Сидов:  0  |  0 KB/s  ]   Личеров:  0  |  0 KB/s  ]

* - сиды/пиры с внешних источников

   
 
Автор Сообщение

nemos Пол:Муж

20-Июл-2012 17:58


Год выпуска: 2012
Жанр: Боевик
Страна: Россия
Режиссер: Арман Геворгян
В ролях: Евгений Березовский, Юрий Кормушин, Виктор Фалалеев, Александр Песков, Абель Абелян, Виген Степанян
Сюжет фильма:
О людях выполняющих приказ – «найти и ликвидировать» — этот фильм. Каждый из них потерял своего напарника. Все вместе они уйдут в горы, чтобы отомстить и остановить подготовку серии кровавых терактов. Кто из них выживет, кто выполнит задание, кто останется человеком, а кто станет предателем? — Пока не известно. Главное, что в горах нет друзей и врагов. Есть только цель, долг, честь и желание выжить.
Сложные человеческие отношения разворачиваются в тылу врага. Крылатая фраза "А ты бы пошёл с ним в разведку" звучит в сегодняшней жизни, как никогда остро. Война и экстремальные обстоятельства вскрывают глубинные слои человеческой души. Одних они ломают, других перемалывают, как мясорубка, третьих - закаляют, как сталь... Глубокие характеры, неожиданные повороты сюжета, яркие работы режиссёра, оператора и актёров не оставят равнодушным даже самого искушённого зрителя
Качество видео: SatRip

Продолжительность: 00:45:42 серия

Формат: AVI
Видео: DivX, 704х400, 1399 Kbit/s
Аудио: русский, MP3 2.0, 128 Kbit/s

Код:

Общее
Полное имя : D:\Торренты\Стрелок (2012) SATRip\Стрелок.04.avi
Формат : AVI
Формат/Информация : Audio Video Interleave
Размер файла : 495 Мбайт
Продолжительность : 45 м.
Общий поток : 1537 Кбит/сек
Программа кодирования : VirtualDubMod 1.5.10.2 (build 2540/release)
Библиотека кодирования : VirtualDub build 29808/release

Видео
Идентификатор : 0
Формат : MPEG-4 Visual
Параметр BVOP формата : 1
Параметр QPel формата : Нет
Параметр GMC формата : Без точки перехода
Параметр матрицы формата : Default (H.263)
Режим смешивания : Сжатый битовый поток
Идентификатор кодека : DX50
Идентификатор кодека/Подсказка : DivX 5
Продолжительность : 45 м.
Битрейт : 1399 Кбит/сек
Ширина : 704 пикс.
Высота : 400 пикс.
Соотношение сторон : 16:9
Частота кадров : 25,000 кадр/сек
Цветовое пространство : YUV
Подвыборка цветности : 4:2:0
Битовая глубина : 8 бит
Тип развёртки : Прогрессивная
Метод сжатия : С потерями
Бит/(Пиксели*Кадры) : 0.199
Размер потока : 451 Мбайт (91%)
Библиотека кодирования : DivX 6.8.5 (UTC 2009-08-20)

Аудио
Идентификатор : 1
Формат : MPEG Audio
Версия формата : Version 1
Профиль формата : Layer 3
Режим : Joint stereo
Идентификатор кодека : 55
Идентификатор кодека/Подсказка : MP3
Продолжительность : 45 м.
Вид битрейта : Постоянный
Битрейт : 128 Кбит/сек
Каналы : 2 канала
Частота : 48,0 КГц
Метод сжатия : С потерями
Размер потока : 41,2 Мбайт (8%)
Выравнивание : Соединение по промежуткам
Продолжительность промежутка : 40 мс. (1,00 видеокадр)
Время предзагрузки промежутка : 504 ms
Библиотека кодирования : LAME3.90.3
Семпл: http://multi-up.com/735519

Релиз группы:
picpicpicpicpicpicpicpic
Для увеличения картинки щелкните мышкой по превью

Этот торрент недоступен для скачивания без регистрации, однако доступен по публичной magnet-ссылке (источники с публичных трекеров). Перед использованием ссылки прочтите, пожалуйста Пользовательское соглашение, а также как можно дольше оставайтесь на раздаче! Для того, чтобы скачать сам торрент-файл (который видит больше источников), а также для того, чтобы поблагодарить релизера, вам необходимо зарегистрироваться. Если регистрироваться лень - вы можете также попробовать скачать релиз по нашим партнерским ссылкам ниже.

[underverse.su].t18849.torrent
Трекер: Зарегистрирован   [ 20.07.2012 17:58 ]  

Статус: проверено (by garry at 21.07.2012 08:14)
Поблагодарили: 1 человек
Тип торрента: публичный - доступные источники с открытых трекеров: 
Размер: 1,92 GB (занимает 0,44 DVDR, для записи нужно 1 болванка DVDR/RW)
 
 

8ad_R060d Пол:Муж

02-Июл-2014 06:55

Гуд, буду смотреть! )

*Jackal* Пол:Муж

09-Июл-2014 08:17

Ау, раздайте плиз, спс !!!

Яндекс.Метрика powered by Sphinx


В Н И М А Н И Е
Сайт не распространяет и не хранит электронные версии произведений, а лишь бесплатно и без коммерческой выгоды (не требуя взамен платы,
SMS и т.д.) предоставляет доступ к создаваемому пользователями каталогу ссылок на торрент-файлы, которые содержат только списки хеш-сумм.
Убедительная просьба с жалобами обращаться напрямую к пользователю, разместившему торрент файл.

Вверх