Loading...
Error

Любовь с оружием (4 серии из 4) (2011 мини-сериал) (Сергей Чекалов) [2011 г., Мелодрама, Криминал, DVDRip]

Статистика раздачи
Размер:  2,15 GB   |    Зарегистрирован:  4 года 8 месяцев   |    Скачан:  9 раз

Полного источника не было: 2 года 3 месяца

Сидов:  0  |  0 KB/s  ]   Личеров:  0  |  0 KB/s  ]

* - сиды/пиры с внешних источников

   
 
Автор Сообщение

nemos Пол:Муж

20-Июл-2012 17:38

Любовь с оружием (4 серии из 4) (2011 мини-сериал)


Год выпуска: 2011
Жанр: Мелодрама, Криминал
Страна: Россия
Режиссер: Сергей Чекалов
В ролях: Виктория Исакова, Павел Трубинер, Игорь Миркурбанов, Петр Томашевский, Тарас Готовцев, Анатолий Приймак, Саак Дурян, Сергей Сипливый
Сюжет фильма:
Люба живёт мирной спокойно жизнью, в гражданском браке с Максимом. Счастливая пара готовится к свадьбе.
Однажды ночью, на загородной трассе, машина Максима и Любы сбивает человека. Тут же рядом с местом ДТП появляются трое парней, Санчо, Дрозд и Малый. Они заявляют, что были свидетелями аварии и видели, как Максим убил человека. Они предлагают ему сделку – Максим должен переписать им свою машину, заплатить крупную сумму денег и тогда они забывают о том, что видели. Максим понимает, что это афёра и труп который попал к нему под колёса, оказался здесь не случайно. Завязывается драка, в результате которой Максима убивают, а Люба оказывается в реанимации. Когда она приходит в себя, понимает, что её привычная жизнь рухнула. Не надеясь на помощь милиции, слабая, отчаявшаяся женщина, берёт в руки оружие и начинает искать преступников.
Качество видео: DVDRip

Продолжительность: 00:46:42 серия

Формат: AVI
Видео: XviD, 720 x 400, 1466 Kbit/s
Аудио: русский, MP3 2.0, 192 Kbit/s

Код:

Общее
Полное имя : D:\Торренты\Любовь с оружием (2012) DVDRip\Любовь с оружием.04.avi
Формат : AVI
Формат/Информация : Audio Video Interleave
Размер файла : 550 Мбайт
Продолжительность : 46 м.
Общий поток : 1665 Кбит/сек
Программа кодирования : VirtualDubMod 1.5.4.1 (build 2178/release)
Библиотека кодирования : VirtualDubMod build 2178/release

Видео
Идентификатор : 0
Формат : MPEG-4 Visual
Профиль формата : Advanced Simple@L5
Параметр BVOP формата : 1
Параметр QPel формата : Нет
Параметр GMC формата : Без точки перехода
Параметр матрицы формата : Выборочная
Идентификатор кодека : XVID
Идентификатор кодека/Подсказка : XviD
Продолжительность : 46 м.
Битрейт : 1466 Кбит/сек
Ширина : 720 пикс.
Высота : 400 пикс.
Соотношение сторон : 16:9
Частота кадров : 25,000 кадр/сек
Цветовое пространство : YUV
Подвыборка цветности : 4:2:0
Битовая глубина : 8 бит
Тип развёртки : Прогрессивная
Метод сжатия : С потерями
Бит/(Пиксели*Кадры) : 0.204
Размер потока : 484 Мбайт (88%)
Библиотека кодирования : XviD 64

Аудио
Идентификатор : 1
Формат : MPEG Audio
Версия формата : Version 1
Профиль формата : Layer 3
Режим : Joint stereo
Расширение режима : MS Stereo
Идентификатор кодека : 55
Идентификатор кодека/Подсказка : MP3
Продолжительность : 46 м.
Вид битрейта : Постоянный
Битрейт : 192 Кбит/сек
Каналы : 2 канала
Частота : 48,0 КГц
Метод сжатия : С потерями
Размер потока : 63,4 Мбайт (12%)
Выравнивание : Соединение по промежуткам
Продолжительность промежутка : 80 мс. (2,00 видеокадра)
Время предзагрузки промежутка : 504 ms
Библиотека кодирования : LAME3.97
Семпл: http://multi-up.com/735510

Релиз группы:
picpicpicpicpicpicpicpicpic
Для увеличения картинки щелкните мышкой по превью

Этот торрент недоступен для скачивания без регистрации, однако доступен по публичной magnet-ссылке (источники с публичных трекеров). Перед использованием ссылки прочтите, пожалуйста Пользовательское соглашение, а также как можно дольше оставайтесь на раздаче! Для того, чтобы скачать сам торрент-файл (который видит больше источников), а также для того, чтобы поблагодарить релизера, вам необходимо зарегистрироваться. Если регистрироваться лень - вы можете также попробовать скачать релиз по нашим партнерским ссылкам ниже.

[underverse.su].t18848.torrent
Трекер: Зарегистрирован   [ 20.07.2012 17:38 ]  

Статус: проверено (by garry at 21.07.2012 08:14)
Поблагодарили: пока никто не поблагодарил...
Тип торрента: публичный - доступные источники с открытых трекеров: 
Размер: 2,15 GB (занимает 0,49 DVDR, для записи нужно 1 болванка DVDR/RW)
 
 
Похожие темы
Форум Тема Автор Торрент Отв. Посл. сооб.
T Новинки кино [CAMRip, TS, DVDScr, WP, TC] Любовь с ограничениями (Дмитрий Тюрин) [2016 г., комедия, мелодрама, CAMRip] 90ytr90
3 | 0

0 | 280

10

18.03.2017 09:23


Яндекс.Метрика powered by Sphinx


В Н И М А Н И Е
Сайт не распространяет и не хранит электронные версии произведений, а лишь бесплатно и без коммерческой выгоды (не требуя взамен платы,
SMS и т.д.) предоставляет доступ к создаваемому пользователями каталогу ссылок на торрент-файлы, которые содержат только списки хеш-сумм.
Убедительная просьба с жалобами обращаться напрямую к пользователю, разместившему торрент файл.

Вверх