Loading...
Error

Команда восемь (4 серии из 4) (2012) (Александр Аравин) [2012 г., Приключения, Драма, Военный, DVDRip-AVC]

Статистика раздачи
Размер:  2,72 GB   |    Зарегистрирован:  1 год 8 месяцев   |    Скачан:  19 раз

Полного источника не было: 7 месяцев

Сидов:  0  |  0 KB/s  ]   Личеров:  0  |  0 KB/s  ]

* - сиды/пиры с внешних источников

   
 
Автор Сообщение

nemos Пол:Муж

20-Июл-2012 17:15

Команда восемь (4 серии из 4) (2012)


Год выпуска: 2012
Жанр: Приключения, Драма, Военный
Страна: Россия
Режиссер: Александр Аравин
В ролях: Анастасия Лукьянова, Дмитрий Лабуш, Филипп Бледный, Егор Червяков, Дмитрий Лукьянов, Николай Козак, Виктор Вержбицкий
Сюжет фильма:
В первые месяцы войны трое молодых людей – Рита, Ваня и Яшка – оказываются замешаны в страшную криминальную историю: родители Риты жестоко убиты, Яшка стал невольным соучастником убийства, а Ваня – случайным свидетелем. Все трое попадают в один разведотряд, который готовятся забросить в тыл немцев, наступающих на Москву. Там, на фоне войны, им предстоит узнать всю правду о себе и разгадать тайну гибели родителей Риты.
Качество видео: DVDRip-AVC

Продолжительность: 4 x ~ 00:50:00

Формат: AVC
Видео: MPEG-4 AVC, 720х568 (анаморф), 1746 Кбит/сек
Аудио: русский, AC3 2.0, 192 Кбит/сек

Код:

Общее
Уникальный идентификатор : 241140453562507667149499949920782654982 (0xB569F647B93E0447AA532E47BCD01E06)
Полное имя : L:\2222\Komanda.vosem.2012.O.DVDRip.NNM-CLUB\Komanda.vosem.2012.O.DVDRip.NNM-CLUB.01.mkv
Формат : Matroska
Версия формата : Version 2
Размер файла : 697 Мбайт
Продолжительность : 50 м.
Общий поток : 1939 Кбит/сек
Дата кодирования : UTC 2012-04-26 09:37:43
Программа кодирования : mkvmerge v4.9.1 ('Ich will') сборка от Aug 10 2011 09:31:20
Библиотека кодирования : libebml v1.2.1 + libmatroska v1.2.0

Видео
Идентификатор : 1
Формат : AVC
Формат/Информация : Advanced Video Codec
Профиль формата : High@L4.1
Параметр CABAC формата : Да
Параметр ReFrames формата : 9 кадров
Идентификатор кодека : V_MPEG4/ISO/AVC
Продолжительность : 50 м.
Битрейт : 1746 Кбит/сек
Ширина : 720 пикселей
Высота : 568 пикселей
Соотношение сторон : 16:9
Соотношение сторон в оригинале : 16:9
Частота кадров : 25,000 кадров/сек
Цветовое пространство : YUV
Субдискретизация насыщенности : 4:2:0
Битовая глубина : 8 бит
Тип развёртки : Прогрессивная
Бит/(Пиксели*Кадры) : 0.171
Размер потока : 614 Мбайт (88%)
Библиотека кодирования : x264 core 116 r2074 2641b9e
Настройки программы : cabac=1 / ref=9 / deblock=1:-2:-2 / analyse=0x3:0x113 / me=umh / subme=7 / psy=1 / psy_rd=1.00:0.15 / mixed_ref=1 / me_range=16 / chroma_me=1 / trellis=2 / 8x8dct=1 / cqm=0 / deadzone=21,11 / fast_pskip=0 / chroma_qp_offset=-3 / threads=12 / sliced_threads=0 / nr=0 / decimate=1 / interlaced=0 / bluray_compat=0 / constrained_intra=0 / bframes=12 / b_pyramid=2 / b_adapt=2 / b_bias=0 / direct=3 / weightb=1 / open_gop=0 / weightp=2 / keyint=250 / keyint_min=25 / scenecut=40 / intra_refresh=0 / rc_lookahead=50 / rc=2pass / mbtree=1 / bitrate=1746 / ratetol=1.0 / qcomp=0.60 / qpmin=0 / qpmax=69 / qpstep=4 / cplxblur=20.0 / qblur=0.5 / vbv_maxrate=17500 / vbv_bufsize=14000 / nal_hrd=none / ip_ratio=1.40 / aq=1:1.00
Default : Да
Forced : Нет

Аудио
Идентификатор : 2
Формат : AC-3
Формат/Информация : Audio Coding 3
Расширение режима : CM (complete main)
Параметр Endianness формата : Big
Идентификатор кодека : A_AC3
Продолжительность : 50 м.
Вид битрейта : Постоянный
Битрейт : 192 Кбит/сек
Каналы : 2 канала
Расположение каналов : Front: L R
Частота : 48,0 КГц
Битовая глубина : 16 бит
Метод сжатия : С потерями
Размер потока : 69,1 Мбайт (10%)
Default : Да
Forced : Нет
Семпл: http://multi-up.com/735503

Релиз группы:
picpicpicpicpicpicpicpic
Для увеличения картинки щелкните мышкой по превью

Этот торрент недоступен для скачивания без регистрации, однако доступен по публичной magnet-ссылке (источники с публичных трекеров). Перед использованием ссылки прочтите, пожалуйста Пользовательское соглашение, а также как можно дольше оставайтесь на раздаче! Для того, чтобы скачать сам торрент-файл (который видит больше источников), а также для того, чтобы поблагодарить релизера, вам необходимо зарегистрироваться. Если регистрироваться лень - вы можете также попробовать скачать релиз по нашим партнерским ссылкам ниже.

[underverse.su].t53135.torrent
Трекер: Зарегистрирован   [ 26.03.2015 20:21 ]  

Статус: проверено (by nemos at 26.03.2015 20:21)
Поблагодарили: 3 человека
Тип торрента: публичный - доступные источники с открытых трекеров: 
Размер: 2,72 GB (занимает 0,62 DVDR, для записи нужно 1 болванка DVDR/RW)
 
 
Похожие темы
Форум Тема Автор Торрент Отв. Посл. сооб.
T Зарубежное кино [DVDRip, Low-Res HDRip, и т.д.] Команда восемь: В тылу врага / Seal Team Eight: Behind Enemy Lines (Роэль Рейн) [2014 г., боевик, военный, HDRip] MVO (iTunes) 90ytr90
29 | 0

0 | 1212

21

12.04.2014 15:01

xUSSR сериалы [BD / Remux / BDRip / WEB-DL / HDTV 1080/720р] Команда восемь / Серии 1-4 (4) (Александр Аравин) [2012 г., Приключения, драма, военный, ВОВ, WEBDLRip 720p] Чертёнок
1 | 0

0 | 611

22

17.07.2013 06:04



Последний раз редактировалось: nemos (21.07.2012 09:47), всего редактировалось 1 раз

Яндекс.Метрика powered by Sphinx


В Н И М А Н И Е
Сайт не распространяет и не хранит электронные версии произведений, а лишь бесплатно и без коммерческой выгоды (не требуя взамен платы,
SMS и т.д.) предоставляет доступ к создаваемому пользователями каталогу ссылок на торрент-файлы, которые содержат только списки хеш-сумм.
Убедительная просьба с жалобами обращаться напрямую к пользователю, разместившему торрент файл.

Вверх