Loading...
Error

Под прикрытием [12 серий из 12] (Тимур Алпатов) [2012 г., криминальный, боевик, SatRip]

Статистика раздачи
Размер:  6,79 GB   |    Зарегистрирован:  4 года 4 месяца   |    Скачан:  21 раз

Полного источника не было: 2 года

Сидов:  0  |  0 KB/s  ]   Личеров:  0  |  0 KB/s  ]

* - сиды/пиры с внешних источников

   
 
Автор Сообщение

nemos Пол:Муж

20-Июл-2012 14:08

Под прикрытием (12 серий из 12)


Год выпуска: 2012
Жанр: криминальный, боевик
Страна: Россия
Режиссер: Тимур Алпатов
В ролях: Сергей Газаров, Владимир Яглыч, Гурам Баблишвили, Владислав Котлярский, Софья Торосян, Максим Важов
Сюжет фильма:
Высокобюджетный приключенческий боевик от режиссера «Глухаря».
Что будет, если во время операции по внедрению в преступную группировку офицер ФСБ влюбится в дочь главаря?
ФСБ на протяжении длительного времени следила за известной преступной организацией, и последние донесения вызвали серьезные опасения. Существует лишь один способ арестовать преступников - внедрение крота в криминальную группировку, чтобы изнутри добыть необходимую информацию и всевозможные улики. В качестве агента был выбран молодой сотрудник оперативного отдела. Все шло, как и планировалось, пока с внедренным агентом не произошла оказия - он по уши влюбился в дочь главаря криминальной группировки. И теперь вся операция находится под угрозой срыва.
Качество видео: SatRip

Продолжительность: 00:50:00 х 12 серий

Формат: AVI
Видео: XviD, 704х384, 1500 kbps
Аудио: русский, MP3 2.0, 128 kbps

Код:

Общее
Полное имя : C:\Justlan\Под прикрытием\Pod prikrytiem\Pod prikrytiem 01.avi
Формат : AVI
Формат/Информация : Audio Video Interleave
Размер файла : 610 Мбайт
Продолжительность : 50 м.
Общий поток : 1633 Кбит/сек
Программа кодирования : VirtualDubModRus 1.5.10.2 (build 2542/release)
Библиотека кодирования : VirtualDubMod build 2542/release

Видео
Идентификатор : 0
Формат : MPEG-4 Visual
Профиль формата : Advanced Simple@L5
Параметр BVOP формата : 2
Параметр QPel формата : Нет
Параметр GMC формата : Без точки перехода
Параметр матрицы формата : Default (H.263)
Режим смешивания : Сжатый битовый поток
Идентификатор кодека : XVID
Идентификатор кодека/Подсказка : XviD
Продолжительность : 50 м.
Битрейт : 1495 Кбит/сек
Ширина : 720 пикселей
Высота : 384 пикселя
Соотношение сторон : 1,875
Частота кадров : 25,000 кадров/сек
Цветовое пространство : YUV
Субдискретизация насыщенности : 4:2:0
Битовая глубина : 8 бит
Тип развёртки : Прогрессивная
Метод сжатия : С потерями
Бит/(Пиксели*Кадры) : 0.216
Размер потока : 559 Мбайт (92%)
Библиотека кодирования : XviD 64

Аудио
Идентификатор : 1
Формат : MPEG Audio
Версия формата : Version 1
Профиль формата : Layer 3
Режим : Joint stereo
Расширение режима : MS Stereo
Идентификатор кодека : 55
Идентификатор кодека/Подсказка : MP3
Продолжительность : 50 м.
Вид битрейта : Постоянный
Битрейт : 128 Кбит/сек
Каналы : 2 канала
Частота : 48,0 КГц
Метод сжатия : С потерями
Размер потока : 47,8 Мбайт (8%)
Выравнивание : Разделение по промежуткам
Продолжительность промежутка : 40 мс. (1,00 видеокадр)
Время предзагрузки промежутка : 500 мс.
Семпл: http://multi-up.com/735418

Релиз группы:

picpicpicpicpicpicpicpicpicpic
Для увеличения картинки щелкните мышкой по превью

Этот торрент недоступен для скачивания без регистрации, однако доступен по публичной magnet-ссылке (источники с публичных трекеров). Перед использованием ссылки прочтите, пожалуйста Пользовательское соглашение, а также как можно дольше оставайтесь на раздаче! Для того, чтобы скачать сам торрент-файл (который видит больше источников), а также для того, чтобы поблагодарить релизера, вам необходимо зарегистрироваться. Если регистрироваться лень - вы можете также попробовать скачать релиз по нашим партнерским ссылкам ниже.

[underverse.su].t18844.torrent
Трекер: Зарегистрирован   [ 20.07.2012 14:08 ]  

Статус: проверено (by garry at 20.07.2012 14:26)
Поблагодарили: 1 человек
Тип торрента: публичный - доступные источники с открытых трекеров: 
Размер: 6,79 GB (занимает 1,55 DVDR, для записи нужно 2 болванки DVDR/RW)
 
 
Похожие темы
Форум Тема Автор Торрент Отв. Посл. сооб.
Зарубежные сериалы Под прикрытием / Gangland Undercover / Сезон 1 (1-6 серии из 6) (Ноэль Бэйкер, Карл Натсон и др.) [2015 г., драма, криминал, биография, история, WEB-DLRip] MVO + Original older
1 | 0

1 | 505

8

07.08.2015 21:43

xUSSR сериалы Под прикрытием / серии 01-12 (12) (Тимур Алпатов) [2012 г., криминал, HDTVRip] 90ytr90
6 | 3

0 | 866

12

19.04.2013 19:10

xUSSR сериалы [BD / Remux / BDRip / WEB-DL / HDTV 1080/720р] Под прикрытием / Серии 1-12 (12) (Тимур Алпатов) [2012 г., Криминал, HDTVRip 720р] Чертёнок
4 | 1

0 | 1006

10

21.04.2013 15:20


Яндекс.Метрика powered by Sphinx


В Н И М А Н И Е
Сайт не распространяет и не хранит электронные версии произведений, а лишь бесплатно и без коммерческой выгоды (не требуя взамен платы,
SMS и т.д.) предоставляет доступ к создаваемому пользователями каталогу ссылок на торрент-файлы, которые содержат только списки хеш-сумм.
Убедительная просьба с жалобами обращаться напрямую к пользователю, разместившему торрент файл.

Вверх