Loading...
Error

ЭкстраМен / The Extra Man (Шари Спрингер Берман, Роберт Пульчини) [2010 г., комедия, HDRip]

Статистика раздачи
Размер:  2,05 GB   |    Зарегистрирован:  4 года 4 месяца   |    Скачан:  16 раз

Полного источника не было: 4 года

Сидов:  0  |  0 KB/s  ]   Личеров:  0  |  0 KB/s  ]

* - сиды/пиры с внешних источников

   
 
Автор Сообщение

RG NewCinema 

19-Июл-2012 04:21

ЭкстраМен / The Extra Man


Год выпуска: 2010
Жанр: комедия
Страна: США , Франция
Режиссер: Шари Спрингер Берман, Роберт Пульчини
В ролях: Кевин Клайн, Пол Дано, Джон Си Райли, Мэриэн Селдес, Селия Уэстон, Патти Д’Арбанвиль, Дэн Хедайя, Джейсон Батлер Харнер, Алекс Барнс, Кэти Холмс
Сюжет фильма:
История драматурга-неудачника, которого только что уволили. Главный герой начинает работать в службе эскорт-услуг и с этого момента становится сопровождающим лицом для богатых вдов в Нью-Йорке.

  • Мировая премьера: 25 января 2010
  • Российская премьера: 29 декабря 2011, Русский репортаж

|
Качество видео: HDRip

Продолжительность: 01:48:00

Формат: avi
Видео: Xvid, 720x304, 1817 kbps
Аудио: русский, многоголосый закадровый [профессиональный], AC3 5.1, 448 kbps
Аудио: английский, оригинал, AC3 5.1, 448 kbps

Код:

 General
 Complete name : Extramen.2010.P.HDRip.avi
 Format : AVI
 Format/Info : Audio Video Interleave
 Format profile : OpenDML
 File size : 2.05 GiB
 Duration : 1h 47mn
 Overall bit rate : 2 731 Kbps
 Writing application : VirtualDubMod 1.5.10.2 (build 2540/release)

 Video
 ID : 0
 Format : MPEG-4 Visual
 Format profile : Advanced Simple@L5
 Format settings, BVOP : 2
 Format settings, QPel : No
 Format settings, GMC : No warppoints
 Format settings, Matrix : Custom
 Codec ID : XVID
 Codec ID/Hint : XviD
 Duration : 1h 47mn
 Bit rate : 1 817 Kbps
 Width : 720 pixels
 Height : 304 pixels
 Display aspect ratio : 2.35:1
 Frame rate : 23.976 fps
 Color space : YUV
 Chroma subsampling : 4:2:0
 Bit depth : 8 bits
 Scan type : Progressive
 Compression mode : Lossy
 Bits/(Pixel*Frame) : 0.346
 Stream size : 1.36 GiB (67%)
 Writing library : XviD 1.2.1 (UTC 2008-12-04)

 Audio #1
 ID : 1
 Format : AC-3
 Format/Info : Audio Coding 3
 Mode extension : CM (complete main)
 Format settings, Endianness : Big
 Codec ID : 2000
 Duration : 1h 47mn
 Bit rate mode : Constant
 Bit rate : 448 Kbps
 Channel(s) : 6 channels
 Channel positions : Front: L C R, Side: L R, LFE
 Sampling rate : 48.0 KHz
 Bit depth : 16 bits
 Compression mode : Lossy
 Stream size : 345 MiB (16%)
 Alignment : Split accross interleaves
 Interleave, duration : 42 ms (1.00 video frame)
 Interleave, preload duration : 500 ms

 Audio #2
 ID : 2
 Format : AC-3
 Format/Info : Audio Coding 3
 Mode extension : CM (complete main)
 Format settings, Endianness : Big
 Codec ID : 2000
 Duration : 1h 47mn
 Bit rate mode : Constant
 Bit rate : 448 Kbps
 Channel(s) : 6 channels
 Channel positions : Front: L C R, Side: L R, LFE
 Sampling rate : 48.0 KHz
 Bit depth : 16 bits
 Compression mode : Lossy
 Stream size : 345 MiB (16%)
 Alignment : Split accross interleaves
 Interleave, duration : 42 ms (1.00 video frame)
 Interleave, preload duration : 500 ms
Семпл: http://multi-up.com/733287/
picpicpic
Для увеличения картинки щелкните мышкой по превью

Этот торрент недоступен для скачивания без регистрации, однако доступен по публичной magnet-ссылке (источники с публичных трекеров). Перед использованием ссылки прочтите, пожалуйста Пользовательское соглашение, а также как можно дольше оставайтесь на раздаче! Для того, чтобы скачать сам торрент-файл (который видит больше источников), а также для того, чтобы поблагодарить релизера, вам необходимо зарегистрироваться. Если регистрироваться лень - вы можете также попробовать скачать релиз по нашим партнерским ссылкам ниже.

[underverse.su].t18833.torrent
Трекер: Зарегистрирован   [ 19.07.2012 04:21 ]  

Статус: проверено (by garry at 19.07.2012 09:40)
Поблагодарили: пока никто не поблагодарил...
Тип торрента: публичный - доступные источники с открытых трекеров: 
Размер: 2,05 GB (занимает 0,47 DVDR, для записи нужно 1 болванка DVDR/RW)
 
 

Яндекс.Метрика powered by Sphinx


В Н И М А Н И Е
Сайт не распространяет и не хранит электронные версии произведений, а лишь бесплатно и без коммерческой выгоды (не требуя взамен платы,
SMS и т.д.) предоставляет доступ к создаваемому пользователями каталогу ссылок на торрент-файлы, которые содержат только списки хеш-сумм.
Убедительная просьба с жалобами обращаться напрямую к пользователю, разместившему торрент файл.

Вверх