Loading...
Error

Темные силы / The Dark (Джон Фоусет) [2005 г., ужасы, триллер, детектив, DVDRip]

Статистика раздачи
Размер:  1,37 GB   |    Зарегистрирован:  4 года 4 месяца   |    Скачан:  9 раз

Полного источника не было: 3 года 9 месяцев

Сидов:  0  |  0 KB/s  ]   Личеров:  0  |  0 KB/s  ]

* - сиды/пиры с внешних источников

   
 
Автор Сообщение

theatre Пол:Муж

17-Июл-2012 10:21

Темные силы / The Dark


Год выпуска: 2005
Жанр: ужасы, триллер, детектив
Страна: Германия
Режиссер: Джон Фоусет
В ролях: Мария Белло, Шон Бин, Морис Роевз, Софи Стаки, Эбигейл Стоун, Ричард Элфин, Каспер Харви, Элунд Джонс, Гвенит Петти, Робин Гриффит
Сюжет фильма:
В попытке сплотить семью, жительница Нью-Йорка Адель возвращается с маленькой дочерью Сарой в Уэльс к мужу. Но уединенный дом на утесе, как выяснилось, имеет кровавое прошлое, подчиненное темным силам, которые властвуют до сих пор

  • Мировая премьера: 12 мая 2005
  • Российская премьера: 2 марта 2006, West


Качество видео: DVDRip

Продолжительность: 01:29:25

Формат: avi
Видео: XviD, 704x392, 1730 kbps
Аудио: русский, дублированный (лицензия), AC3 5.1, 448 kbps
Релиз группы:

Код:

General
Complete name                    : C:\downloads\Temnye.sily.2005.XviD.DVDRip.*другой трекер*.avi
Format                           : AVI
Format/Info                      : Audio Video Interleave
File size                        : 1.37 GiB
Duration                         : 1h 29mn
Overall bit rate                 : 2 189 Kbps
Writing application              : VirtualDubMod 1.5.10.2 (build 2540/release)
Writing library                  : VirtualDubMod build 2540/release

Video
ID                               : 0
Format                           : MPEG-4 Visual
Format profile                   : Streaming Video@L1
Format settings, BVOP            : No
Format settings, QPel            : Yes
Format settings, GMC             : No warppoints
Format settings, Matrix          : Default (MPEG)
Codec ID                         : XVID
Codec ID/Hint                    : XviD
Duration                         : 1h 29mn
Bit rate                         : 1 731 Kbps
Width                            : 704 pixels
Height                           : 392 pixels
Display aspect ratio             : 16/9
Frame rate                       : 25.000 fps
Resolution                       : 24 bits
Colorimetry                      : 4:2:0
Scan type                        : Progressive
Bits/(Pixel*Frame)               : 0.251
Stream size                      : 1.08 GiB (79%)
Writing library                  : XviD 1.2.0.dev47 (UTC 2006-11-01)

Audio
ID                               : 1
Format                           : AC-3
Format/Info                      : Audio Coding 3
Codec ID                         : 2000
Duration                         : 1h 29mn
Bit rate mode                    : Constant
Bit rate                         : 448 Kbps
Channel(s)                       : 6 channels
Channel positions                : Front: L C R, Surround: L R, LFE
Sampling rate                    : 48.0 KHz
Stream size                      : 287 MiB (20%)
Alignment                        : Split accross interleaves
Interleave, duration             : 40 ms (1.00 video frame)
Interleave, preload duration     : 500 ms

picpicpic
Для увеличения картинки щелкните мышкой по превью

Этот торрент недоступен для скачивания без регистрации, однако доступен по публичной magnet-ссылке (источники с публичных трекеров). Перед использованием ссылки прочтите, пожалуйста Пользовательское соглашение, а также как можно дольше оставайтесь на раздаче! Для того, чтобы скачать сам торрент-файл (который видит больше источников), а также для того, чтобы поблагодарить релизера, вам необходимо зарегистрироваться. Если регистрироваться лень - вы можете также попробовать скачать релиз по нашим партнерским ссылкам ниже.

[underverse.su].t18810.torrent
Трекер: Зарегистрирован   [ 17.07.2012 10:21 ]  

Статус: проверено (by garry at 17.07.2012 10:48)
Поблагодарили: 1 человек
Тип торрента: публичный - доступные источники с открытых трекеров: 
Размер: 1,37 GB (занимает 0,31 DVDR, для записи нужно 1 болванка DVDR/RW)
 
 
Похожие темы
Форум Тема Автор Торрент Отв. Посл. сооб.
Зарубежное кино [DVDRip, Low-Res HDRip, и т.д.] Темные силы / The Dark (Джон Фоусет) [2005 г., ужасы, триллер, детектив, DVDRip-AVC] Dub + Original + MVO garry
3 | 0

0 | 797

9

20.03.2013 22:30

theatre Пол:Муж

17-Июл-2012 10:31

смотрел давно, тогда, в пятнадцатилетнем или шестнадцатилетнем возрасте, фильм произвел на меня неизгладимое впечатление... недавно пересматривал с удовольствием, довольно жуткий мистический сюжет.

Яндекс.Метрика powered by Sphinx


В Н И М А Н И Е
Сайт не распространяет и не хранит электронные версии произведений, а лишь бесплатно и без коммерческой выгоды (не требуя взамен платы,
SMS и т.д.) предоставляет доступ к создаваемому пользователями каталогу ссылок на торрент-файлы, которые содержат только списки хеш-сумм.
Убедительная просьба с жалобами обращаться напрямую к пользователю, разместившему торрент файл.

Вверх