Loading...
Error

Войско Мын Бала / Myn Bala (Акан Сатаев) [2012 г., приключения, военный, история, DVDRip]

Статистика раздачи
Размер:  1,41 GB   |    Зарегистрирован:  4 года 4 месяца   |    Скачан:  34 раза

Полного источника не было: 1 год 9 месяцев

Сидов:  0  |  0 KB/s  ]   Личеров:  0  |  0 KB/s  ]

* - сиды/пиры с внешних источников

   
 
Автор Сообщение

theatre Пол:Муж

17-Июл-2012 08:48

Войско Мын Бала / Myn Bala


Год выпуска: 2012
Жанр: приключения, военный, история
Страна: Казахстан
Режиссер: Акан Сатаев
В ролях: Асылхан Толепов, Алия Ануарбек, Аян Утепберген, Куралай Анарбекова, Тлектес Мейрамов, Толеубек Аралбай, Нурлан Алимжанов, Берик АйтжановКуралай Анарбекова,
Сюжет фильма:
Действие кинокартины происходит в первой половине XVIII века в переломную эпоху казахской истории, когда в кровопролитной войне с джунгарами единство казахского народа и героизм становятся решающей силой на пути к обретению свободы.

  • Мировая премьера: 3 мая 2012

Качество видео: DVDRip

Продолжительность: 02:12:49

Формат: avi
Видео: XviD, 688x288, 1316 kbps
Аудио: русский, двухголосый закадровый (профессиональный), AC3 2.0, 192 kbps

Код:

General
Complete name                    : C:\downloads\Войско Мын Бала (2011).avi
Format                           : AVI
Format/Info                      : Audio Video Interleave
File size                        : 1.41 GiB
Duration                         : 2h 12mn
Overall bit rate                 : 1 518 Kbps
Recorded date                    : 16.07.2012
Writing library                  : VirtualDub build 32507/release
Comment                          : undelete.tv

Video
ID                               : 0
Format                           : MPEG-4 Visual
Format profile                   : Streaming Video@L1
Format settings, BVOP            : Yes
Format settings, QPel            : No
Format settings, GMC             : No warppoints
Format settings, Matrix          : Default (H.263)
Muxing mode                      : Packed bitstream
Codec ID                         : XVID
Codec ID/Hint                    : XviD
Duration                         : 2h 12mn
Bit rate                         : 1 316 Kbps
Width                            : 688 pixels
Height                           : 288 pixels
Display aspect ratio             : 2.35
Frame rate                       : 25.000 fps
Resolution                       : 24 bits
Colorimetry                      : 4:2:0
Scan type                        : Progressive
Bits/(Pixel*Frame)               : 0.266
Stream size                      : 1.22 GiB (87%)
Writing library                  : XviD 1.0.1 (UTC 2004-06-05)

Audio
ID                               : 1
Format                           : AC-3
Format/Info                      : Audio Coding 3
Codec ID                         : 2000
Duration                         : 2h 12mn
Bit rate mode                    : Constant
Bit rate                         : 192 Kbps
Channel(s)                       : 2 channels
Channel positions                : L R
Sampling rate                    : 48.0 KHz
Stream size                      : 182 MiB (13%)
Alignment                        : Aligned on interleaves
Interleave, duration             : 40 ms (1.00 video frame)
Interleave, preload duration     : 512 ms

Семпл: http://multi-up.com/733437
picpicpic
Для увеличения картинки щелкните мышкой по превью

Этот торрент недоступен для скачивания без регистрации, однако доступен по публичной magnet-ссылке (источники с публичных трекеров). Перед использованием ссылки прочтите, пожалуйста Пользовательское соглашение, а также как можно дольше оставайтесь на раздаче! Для того, чтобы скачать сам торрент-файл (который видит больше источников), а также для того, чтобы поблагодарить релизера, вам необходимо зарегистрироваться. Если регистрироваться лень - вы можете также попробовать скачать релиз по нашим партнерским ссылкам ниже.

[underverse.su].t18809.torrent
Трекер: Зарегистрирован   [ 18.07.2012 00:34 ]  

Статус: проверено (by Паукан at 18.07.2012 02:26)
Поблагодарили: пока никто не поблагодарил...
Тип торрента: публичный - доступные источники с открытых трекеров: 
Размер: 1,41 GB (занимает 0,32 DVDR, для записи нужно 1 болванка DVDR/RW)
 
 
Похожие темы
Форум Тема Автор Торрент Отв. Посл. сооб.
Зарубежное кино [DVDRip, Low-Res HDRip, и т.д.] Войско Мын Бала / Myn Bala (Акан Сатаев) [2011 г., приключения, военный, DVDRip] DVO 90ytr90
6 | 0

0 | 873

16

10.02.2013 19:10

Madiar Пол:Муж

13-Сен-2012 12:28

Наш,Казахстанский фильм! :)

Яндекс.Метрика powered by Sphinx


В Н И М А Н И Е
Сайт не распространяет и не хранит электронные версии произведений, а лишь бесплатно и без коммерческой выгоды (не требуя взамен платы,
SMS и т.д.) предоставляет доступ к создаваемому пользователями каталогу ссылок на торрент-файлы, которые содержат только списки хеш-сумм.
Убедительная просьба с жалобами обращаться напрямую к пользователю, разместившему торрент файл.

Вверх