Loading...
Error

Ворон / The Raven (Джеймс МакТиг) [2012 г., триллер, детектив, HDRip]

Статистика раздачи
Размер:  1,45 GB   |    Зарегистрирован:  4 года 4 месяца   |    Скачан:  37 раз

Полного источника не было: 4 месяца 16 дней

Сидов:  0  |  0 KB/s  ]   Личеров:  0  |  0 KB/s  ]

* - сиды/пиры с внешних источников

   
 
Автор Сообщение

RG NewCinema 

16-Июл-2012 09:34

Ворон / The Raven


Год выпуска: 2012
Жанр: триллер, детектив
Страна: США
Режиссер: Джеймс МакТиг
В ролях: Джон Кьюсак, Элис Ив, Люк Эванс, Брендан Глисон, Кевин МакНэлли, Оливер Джексон-Коэн, Джимми Юилл, Сэм Хэзелдайн, Пэм Феррис, Брендан Койл
Сюжет фильма:
Рассказ о последних днях жизни Эдгара Аллана По. Знаменитый поэт преследует серийного убийцу, чьи преступления очень похожи на те, что описаны в его произведениях.

  • Мировая премьера: 9 марта 2012
  • Российская премьера: 12 апреля 2012, Top Film Distribution

/
Качество видео: HDRip

Продолжительность: 01:50:51

Формат: avi
Видео: XviD, 720x304, 1485 kbps
Аудио: русский, дублированный [лицензия], AC3 5.1, 384 kbps

Код:

General
Complete name                    : H:\Видео\dvdrips\Voron.2012.DUB.HDRip.XviD.AC3.-Vaippp.avi
Format                           : AVI
Format/Info                      : Audio Video Interleave
File size                        : 1.45 GiB
Duration                         : 1h 50mn
Overall bit rate                 : 1 877 Kbps
Movie name                       : The Raven (2012)
Director                         : Vaippp
Genre                            : Thriller
Writing application              : VirtualDubModRus 1.5.10.2 (build 2542/release)
Original source form/Name        : Movie
Comment                          : HDRip

Video
ID                               : 0
Format                           : MPEG-4 Visual
Format profile                   : Streaming Video@L1
Format settings, BVOP            : Yes
Format settings, QPel            : No
Format settings, GMC             : No warppoints
Format settings, Matrix          : Custom
Codec ID                         : XVID
Codec ID/Hint                    : XviD
Duration                         : 1h 50mn
Bit rate                         : 1 485 Kbps
Width                            : 720 pixels
Height                           : 304 pixels
Display aspect ratio             : 2.35
Frame rate                       : 23.976 fps
Resolution                       : 24 bits
Colorimetry                      : 4:2:0
Scan type                        : Progressive
Bits/(Pixel*Frame)               : 0.283
Stream size                      : 1.15 GiB (79%)
Writing library                  : XviD 64

Audio
ID                               : 1
Format                           : AC-3
Format/Info                      : Audio Coding 3
Codec ID                         : 2000
Duration                         : 1h 50mn
Bit rate mode                    : Constant
Bit rate                         : 384 Kbps
Channel(s)                       : 6 channels
Channel positions                : Front: L C R, Surround: L R, LFE
Sampling rate                    : 48.0 KHz
Stream size                      : 303 MiB (20%)
Alignment                        : Split accross interleaves
Interleave, duration             : 42 ms (1.00 video frame)
Interleave, preload duration     : 500 ms

Семпл: http://multi-up.com/733424

pic pic pic
Для увеличения картинки щелкните мышкой по превью

Этот торрент недоступен для скачивания без регистрации, однако доступен по публичной magnet-ссылке (источники с публичных трекеров). Перед использованием ссылки прочтите, пожалуйста Пользовательское соглашение, а также как можно дольше оставайтесь на раздаче! Для того, чтобы скачать сам торрент-файл (который видит больше источников), а также для того, чтобы поблагодарить релизера, вам необходимо зарегистрироваться. Если регистрироваться лень - вы можете также попробовать скачать релиз по нашим партнерским ссылкам ниже.

[underverse.su].t18803.torrent
Трекер: Зарегистрирован   [ 16.07.2012 09:34 ]  

Статус: проверено (by Паукан at 16.07.2012 09:38)
Поблагодарили: 2 человека
Тип торрента: публичный - доступные источники с открытых трекеров: 
Размер: 1,45 GB (занимает 1/3 DVDR, для записи нужно 1 болванка DVDR/RW)
 
 
Похожие темы
Форум Тема Автор Торрент Отв. Посл. сооб.
Зарубежное кино [DVDRip, Low-Res HDRip, и т.д.] Ворон / The Crow (Алекс Пройас / Alex Proyas) [1994 г., фэнтези, боевик, триллер, BDRip-AVC] MVO 90ytr90
68 | 3

0 | 174

2

15.11.2016 16:39

Зарубежное кино [DVDRip, Low-Res HDRip, и т.д.] Ворон / The Crow (Алекс Пройас / Alex Proyas) [1994 г., фэнтези, боевик, триллер, BDRip] MVO 90ytr90
24 | 0

0 | 170

0

15.11.2016 16:29

Зарубежное кино [DVDRip, Low-Res HDRip, и т.д.] Ворон / The Raven (Джеймс МакТиг) [2012 г., Триллер, Детектив, HDRip-AVC] Dub + Original Чертёнок
1 | 0

0 | 396

8

10.02.2013 20:25

Зарубежное кино [DVDRip, Low-Res HDRip, и т.д.] Ворон / The Raven (Джеймс МакТиг / James McTeigue) [2012 г., Триллер, Детектив, BDRip] Dub + Eng 90ytr90
27 | 0

0 | 964

14

10.02.2013 17:08

Зарубежное кино HQ Ворон / The Raven (Джеймс МакТиг) [2012 г., триллер, детектив, HDRip] (Rus, Ukr, Eng) HQ Underverse HQ Underverse
1 | 0

0 | 1179

25

15.08.2012 18:12

Зарубежное кино [HDDVDRip / BDRip / WEB-DL / HDTV 1080/720р] Ворон / The Crow (Алекс Пройас / Alex Proyas) [1994 г., фэнтези, боевик, триллер, BDRip 1080p] MVO 90ytr90
29 | 3

0 | 157

0

15.11.2016 16:34

main 

16-Июл-2012 15:30

Спасибо!

Яндекс.Метрика powered by Sphinx


В Н И М А Н И Е
Сайт не распространяет и не хранит электронные версии произведений, а лишь бесплатно и без коммерческой выгоды (не требуя взамен платы,
SMS и т.д.) предоставляет доступ к создаваемому пользователями каталогу ссылок на торрент-файлы, которые содержат только списки хеш-сумм.
Убедительная просьба с жалобами обращаться напрямую к пользователю, разместившему торрент файл.

Вверх