Loading...
Error

Напролом / Lockout (Джеймс Мэтер, Стивен Ст. Леджер) [2012 г., фантастика, боевик, триллер, HDRip] (Rus, Eng) HQ Underverse

Статистика раздачи
Размер:  2,17 GB   |    Зарегистрирован:  4 года 4 месяца   |    Скачан:  69 раз

Полного источника не было: 26 дней

Сидов:  0  |  0 KB/s  ]   Личеров:  0  |  0 KB/s  ]

* - сиды/пиры с внешних источников

   
 
Автор Сообщение

HQ Underverse 

15-Июл-2012 05:37

Напролом / Lockout


Год выпуска: 2012
Жанр: фантастика, боевик, триллер
Страна: Франция
Режиссер: Джеймс Мэтер, Стивен Ст. Леджер
В ролях: Гай Пирс, Мэгги Грэйс, Винсент Риган, Джозеф Гилган, Ленни Джеймс, Петер Стормаре, Джеки Идо, Тим Плестер, Марк Танкерсли, Энн-Соленн Хатте
Сюжет фильма:
Отправиться в Космос, проникнуть в самую неприступную тюрьму во Вселенной, прорваться сквозь толпу взбунтовавшихся уголовников и вырвать из их лап дочь президента, пока орбитальная станция не рухнула на Землю. Это может только спецагент Сноу. Потому что он лучший. Потому что он… неуправляем.

  • Мировая премьера: 7 апреля 2012
  • Российская премьера: 17 мая 2012, Вольга

|
Качество видео: HDRip

Продолжительность: 01:35:19

Формат: avi
Видео: XviD, 720x304, 2343 kbps
Аудио #1: русский, дублированный [лицензия], AC3 5.1, 448 kbps
Аудио #2: английский, оригинал, AC3 5.1, 448 kbps
Субтитры #1: внешние, SRT, английский (на narod.ru)
Субтитры #2: внешние, SRT, русский (на narod.ru)

Код:

General
Complete name                    : \\Servak\d\Видео\HQ\Напролом\Lockout.2012.HDRip.XviD.AC3.Rus.D.Eng.O.HQ.Underverse.avi
Format                           : AVI
Format/Info                      : Audio Video Interleave
Format profile                   : OpenDML
File size                        : 2.17 GiB
Duration                         : 1h 35mn
Overall bit rate                 : 3 258 Kbps
Writing application              : VirtualDubMod 1.5.10.2 (build 2542/release)
Writing library                  : VirtualDubMod build 2542/release

Video
ID                               : 0
Format                           : MPEG-4 Visual
Format profile                   : Streaming Video@L1
Format settings, BVOP            : Yes
Format settings, QPel            : No
Format settings, GMC             : No warppoints
Format settings, Matrix          : Custom
Muxing mode                      : Packed bitstream
Codec ID                         : XVID
Codec ID/Hint                    : XviD
Duration                         : 1h 35mn
Bit rate                         : 2 344 Kbps
Width                            : 720 pixels
Height                           : 304 pixels
Display aspect ratio             : 2.35
Frame rate                       : 23.976 fps
Resolution                       : 24 bits
Colorimetry                      : 4:2:0
Scan type                        : Progressive
Bits/(Pixel*Frame)               : 0.447
Stream size                      : 1.56 GiB (72%)
Writing library                  : XviD 64

Audio #1
ID                               : 1
Format                           : AC-3
Format/Info                      : Audio Coding 3
Codec ID                         : 2000
Duration                         : 1h 35mn
Bit rate mode                    : Constant
Bit rate                         : 448 Kbps
Channel(s)                       : 6 channels
Channel positions                : Front: L C R, Surround: L R, LFE
Sampling rate                    : 48.0 KHz
Stream size                      : 305 MiB (14%)
Alignment                        : Split accross interleaves
Interleave, duration             : 42 ms (1.00 video frame)
Interleave, preload duration     : 500 ms

Audio #2
ID                               : 2
Format                           : AC-3
Format/Info                      : Audio Coding 3
Codec ID                         : 2000
Duration                         : 1h 35mn
Bit rate mode                    : Constant
Bit rate                         : 448 Kbps
Channel(s)                       : 6 channels
Channel positions                : Front: L C R, Surround: L R, LFE
Sampling rate                    : 48.0 KHz
Stream size                      : 305 MiB (14%)
Alignment                        : Split accross interleaves
Interleave, duration             : 42 ms (1.00 video frame)
Interleave, preload duration     : 500 ms

Релиз группы:
picpicpic
Для увеличения картинки щелкните мышкой по превью

Этот торрент недоступен для скачивания без регистрации, однако доступен по публичной magnet-ссылке (источники с публичных трекеров). Перед использованием ссылки прочтите, пожалуйста Пользовательское соглашение, а также как можно дольше оставайтесь на раздаче! Для того, чтобы скачать сам торрент-файл (который видит больше источников), а также для того, чтобы поблагодарить релизера, вам необходимо зарегистрироваться. Если регистрироваться лень - вы можете также попробовать скачать релиз по нашим партнерским ссылкам ниже.

[underverse.su].t18777.torrent
Трекер: Зарегистрирован   [ 15.07.2012 05:37 ]  

Статус: проверено (by HQ Underverse at 15.07.2012 05:38)
Поблагодарили: 6 человек
Тип торрента: публичный - доступные источники с открытых трекеров: 
Размер: 2,17 GB (занимает 1/2 DVDR, для записи нужно 1 болванка DVDR/RW)
 
 
Похожие темы
Форум Тема Автор Торрент Отв. Посл. сооб.
Зарубежное кино [DVDRip, Low-Res HDRip, и т.д.] Напролом / Lockout (Джеймс Мэтер, Стивен Ст. Леджер.) [2012 г., Фантастика, боевик, триллер, BDRip] [Лицензия] WeaSel
0 | 0

1 | 2440

319

06.08.2012 03:27

Зарубежное кино [DVDRip, Low-Res HDRip, и т.д.] Напролом / Lockout (Джеймс Мэтер, Стивен Ст. Леджер) [2011 г., Фантастика, Боевик, Триллер, BDRip-AVC] Dub (RUS) + AVO (RUS, А. Карповский) + Dub (UKR, 1+1) + Original (ENG) + Subs (RUS, ENG, UKR)... Ведьмочка
0 | 1

0 | 572

12

20.08.2014 20:47

Зарубежное кино [DVDRip, Low-Res HDRip, и т.д.] Напролом / Lockout (Джеймс Мэтер / James Mather, Стивен Ст. Леджер / Stephen St. Leger) [2012 г., фантастика, боевик, триллер, BDRip-AVC] [расширенная версия] Dub + Sub (Rus, Eng) 90ytr90
1 | 0

0 | 730

42

21.08.2014 07:46

Зарубежное кино [HDDVDRip / BDRip / WEB-DL / HDTV 1080/720р] Напролом / Lockout (Джеймс Мэтер, Стивен Ст. Леджер) [2011 г., Фантастика, Боевик, Триллер, BDRip 1080p] Dub (RUS) + Original (ENG) + Subs (RUS, ENG) Расширенная версия Ведьмочка
1 | 0

0 | 527

9

20.08.2014 20:32

Зарубежное кино [HDDVDRip / BDRip / WEB-DL / HDTV 1080/720р] Напролом / Lockout (Джеймс Мэтер / James Mather, Стивен Ст. Леджер / Stephen St. Leger) [2012 г., фантастика, боевик, триллер, BDRip 720p] [расширенная версия] Dub + Original (Eng) + Sub (Rus, Eng) 90ytr90
1 | 0

0 | 554

15

21.08.2014 07:33

Зарубежное кино [HDDVDRip / BDRip / WEB-DL / HDTV 1080/720р] Напролом / The Hard Way (Джон Бэдэм) [1991 г., боевик, комедия, криминал, BDRip 720p] Dub + MVO (1 канал) + DVO (Премьер) + AVO (Горчаков) ultarasbarcelona
3 | 2

0 | 415

7

18.11.2015 11:51

Scorpio29 Пол:Муж

15-Июл-2012 19:11

Кто смотрел, что скажете?

dt1 Пол:Муж

21-Июл-2012 08:08

Мне понравился фильм! Посмотреть можно.

BegleZZZ Пол:Муж

21-Июл-2012 10:59

Ужасный фильм, максимум на раз. Шутки временами ничего, компьютерная графика убогая. Как всегда один против всех. Безусловно фильмы из серии "Такси" были лучшими.

maddd Пол:Муж

21-Июл-2012 16:14

Согласен с BegleZZZ
Один с фильмов, где после выхода с кинотеатра я пожалел денег, которые заплатил за вход

Яндекс.Метрика powered by Sphinx


В Н И М А Н И Е
Сайт не распространяет и не хранит электронные версии произведений, а лишь бесплатно и без коммерческой выгоды (не требуя взамен платы,
SMS и т.д.) предоставляет доступ к создаваемому пользователями каталогу ссылок на торрент-файлы, которые содержат только списки хеш-сумм.
Убедительная просьба с жалобами обращаться напрямую к пользователю, разместившему торрент файл.

Вверх