Loading...
Error

Легенда о вратах ада: Американский заговор / The Legend of Hell`s Gate: An American Conspiracy (Тэннер Бирд) [2011 г., боевик, приключения, вестерн, история, DVDRip]

Статистика раздачи
Размер:  1,37 GB   |    Зарегистрирован:  4 года 4 месяца   |    Скачан:  15 раз

Полного источника не было: 3 года

Сидов:  0  |  0 KB/s  ]   Личеров:  0  |  0 KB/s  ]

* - сиды/пиры с внешних источников

   
 
Автор Сообщение

RG NewCinema 

13-Июл-2012 23:11

Легенда о вратах ада: Американский заговор / The Legend of Hell`s Gate: An American Conspiracy


Год выпуска: 2011
Жанр: боевик, приключения, вестерн, история
Страна: США
Режиссер: Тэннер Бирд
В ролях: Эрик Бальфур, Лу Тэйлор Пуччи, Генри Томас, Дженна Деван, Саммер Глау, Кевин Алехандро, Джэми Кинг, Тэннер Бирд, Джим Бивер, Роберт Баккли
Сюжет фильма:
Фильм основанный на реальных событиях, фильм раскрывает тайну, окутывающую легендарные скалы "Врата Ада" в Техасе. Начало этой истории восходит к 70-м годам 19-ого века...
/
Качество видео: DVDRip

Продолжительность: 01:46:18

Формат: avi
Видео: XviD, 704x272, 1638 kbps
Аудио: русский, двухголосый закадровый [профессиональный, НТВ+], MP3 2.0, 192 kbps

Код:

General
Complete name                    : H:\Видео\dvdrips\Legenda.o.vratah.ada.Amerikanskii.zagovor.2011.P2.DVDRip.RG.F-Torrent.avi
Format                           : AVI
Format/Info                      : Audio Video Interleave
File size                        : 1.37 GiB
Duration                         : 1h 46mn
Overall bit rate                 : 1 840 Kbps
Movie name                       : Legenda.o.vratah.ada.Amerikanskii.zagovor.2011.P2.DVDRip.RG.F-Torrent
Director                         : RG.F-Torrent
Writing application              : VirtualDubMod 1.5.4.1 (build 2178/release)
Copyright                        : www.F-Torrent.com

Video
ID                               : 0
Format                           : MPEG-4 Visual
Format profile                   : Streaming Video@L1
Format settings, BVOP            : Yes
Format settings, QPel            : No
Format settings, GMC             : No warppoints
Format settings, Matrix          : Default (H.263)
Muxing mode                      : Packed bitstream
Codec ID                         : XVID
Codec ID/Hint                    : XviD
Duration                         : 1h 46mn
Bit rate                         : 1 639 Kbps
Width                            : 704 pixels
Height                           : 272 pixels
Display aspect ratio             : 2.588
Frame rate                       : 23.976 fps
Resolution                       : 24 bits
Colorimetry                      : 4:2:0
Scan type                        : Progressive
Bits/(Pixel*Frame)               : 0.357
Stream size                      : 1.22 GiB (89%)
Writing library                  : XviD 1.1.0 (UTC 2005-11-22)

Audio
ID                               : 1
Format                           : MPEG Audio
Format version                   : Version 1
Format profile                   : Layer 3
Codec ID                         : 55
Codec ID/Hint                    : MP3
Duration                         : 1h 46mn
Bit rate mode                    : Constant
Bit rate                         : 192 Kbps
Channel(s)                       : 2 channels
Sampling rate                    : 48.0 KHz
Resolution                       : 16 bits
Stream size                      : 146 MiB (10%)
Alignment                        : Aligned on interleaves
Interleave, duration             : 42 ms (1.00 video frame)
Interleave, preload duration     : 504 ms
Writing library                  : LAME3.93
Encoding settings                : -m a -V 4 -q 5 -lowpass 19.3 -b 192

Семпл: http://multi-up.com/730753
picpicpic
Для увеличения картинки щелкните мышкой по превью

Этот торрент недоступен для скачивания без регистрации, однако доступен по публичной magnet-ссылке (источники с публичных трекеров). Перед использованием ссылки прочтите, пожалуйста Пользовательское соглашение, а также как можно дольше оставайтесь на раздаче! Для того, чтобы скачать сам торрент-файл (который видит больше источников), а также для того, чтобы поблагодарить релизера, вам необходимо зарегистрироваться. Если регистрироваться лень - вы можете также попробовать скачать релиз по нашим партнерским ссылкам ниже.

[underverse.su].t18760.torrent
Трекер: Зарегистрирован   [ 13.07.2012 23:11 ]  

Статус: проверено (by Паукан at 14.07.2012 07:47)
Поблагодарили: пока никто не поблагодарил...
Тип торрента: публичный - доступные источники с открытых трекеров: 
Размер: 1,37 GB (занимает 0,31 DVDR, для записи нужно 1 болванка DVDR/RW)
 
 
Похожие темы
Форум Тема Автор Торрент Отв. Посл. сооб.
Зарубежное кино [DVDRip, Low-Res HDRip, и т.д.] Легенда о Красном Орле / Aguila Roja, la pelicula (Хосе Рамон Айерра) [2011 г., боевик, комедия, приключения, HDRip] MVO + Original 90ytr90
0 | 1

0 | 1754

52

30.11.2012 17:51

Зарубежное кино [DVDRip, Low-Res HDRip, и т.д.] Легенда о Красном Орле / Aguila Roja, la pelicula (Хосе Рамон Айерра) [2011 г., боевик, комедия, приключения, HDRip] MVO 90ytr90
0 | 0

0 | 1322

11

30.11.2012 17:57

Зарубежное кино [DVDRip, Low-Res HDRip, и т.д.] Легенда о Красном Орле / Aguila Roja, la pelicula (Хосе Рамон Айерра) [2011 г., боевик, комедия, приключения, HDRip] MVO 90ytr90
0 | 1

0 | 1253

1

07.12.2012 13:35

Зарубежное кино [DVDRip, Low-Res HDRip, и т.д.] Легенда о пианисте / The Legend of 1900 / La Leggenda Del Pianista Sull'Oceano (Джузеппе Торнаторе / Giuseppe Tornatore) [1998 г., драма, мелодрама, музыка, BDRip] [Full Version] DVO + Sub (Rus, Eng) 90ytr90
25 | 1

0 | 2062

4

04.01.2014 19:13

Зарубежное кино [DVDRip, Low-Res HDRip, и т.д.] Легенда о Барни Томсоне / The Legend of Barney Thomson (Роберт Карлайл) [2015 г., комедия, криминал, DVDRip] VO makkol
1 | 1

0 | 659

39

27.11.2015 12:57

Кино СССР Легенда о княгине Ольге / Серии 1-2 из 2 (Юрий Ильенко) [1983 г., драма, исторический, DVDRip] konopic
1 | 0

0 | 1984

11

18.12.2013 11:55

Зарубежные мультфильмы Легенда о динозаврах / March of the Dinosaurs (Мэттью Томпсон) [2011 г., мультфильм, документальный, драма, HDRip] VO RG NewCinema
2 | 0

1 | 663

17

08.10.2012 18:39

Исторические фильмы Легенда о Наполеоне / La legende Napoleonienne (1-2 серии из 2) / (Эрве Перно) [1999 г., документальный, история, познавательный, реконструкция, SatRip] DVO ARI71
2 | 0

0 | 526

7

17.09.2016 09:07

Короткометражные мультфильмы Легенда о Костоломе (костяном драконе) / Legend of the Boneknapper Dragon (Джон Пуглиси ) [2010 г., фэнтези, мультфильм, короткометражка, ... , DVDRip] GanibalKing
0 | 0

2 | 1463

13

16.09.2012 03:04

Архив Легенда о пианисте / La leggenda del pianista sull`oceano / The Legend of 1900 (Джузеппе Торнаторе) [1998 г., фэнтези, драма, музыка, BDRip] floatrx
0 | 0

1 | 847

1

29.08.2010 23:52


Яндекс.Метрика powered by Sphinx


В Н И М А Н И Е
Сайт не распространяет и не хранит электронные версии произведений, а лишь бесплатно и без коммерческой выгоды (не требуя взамен платы,
SMS и т.д.) предоставляет доступ к создаваемому пользователями каталогу ссылок на торрент-файлы, которые содержат только списки хеш-сумм.
Убедительная просьба с жалобами обращаться напрямую к пользователю, разместившему торрент файл.

Вверх