Loading...
Error

Беспомощный / Hoa-cha (Пен Ен Чжу) [2012 г., ужасы, детектив, DVDRip]

Статистика раздачи
Размер:  1,37 GB   |    Зарегистрирован:  4 года 4 месяца   |    Скачан:  1 раз

Полного источника не было: 4 года 4 месяца

Сидов:  0  |  0 KB/s  ]   Личеров:  0  |  0 KB/s  ]

* - сиды/пиры с внешних источников

   
 
Автор Сообщение

RG NewCinema 

13-Июл-2012 22:56

Беспомощный / Hoa-cha


Год выпуска: 2012
Жанр: ужасы, детектив
Страна: Корея Южная
Режиссер: Пен Ен Чжу
В ролях: Сон-Гён Ли, Ким Пёль, Дьюк-мун Чои, Хи-чжун Ли, Ил-хва Чои, Парк Сан-ву
Сюжет фильма:
Перед свадьбой невеста (Ким Мин Хи) внезапно исчезает. Жених (Ли Сон Гён) просит двоюродного брата - детектива (Джо Сон Ха) помочь в поисках возлюбленной. По мере расследования они узнают, что Сон Янг совсем не та, за кого себя выдавала.

  • Мировая премьера: 8 марта 2012

/
Качество видео: DVDRip

Продолжительность: 01:55:17

Формат: avi
Видео: XviD, 720x368, 1495 kbps
Аудио: русский, многоголосый закадровый [любительский], MP3 2.0, 192 kbps

Код:

General
Complete name                    : H:\Видео\dvdrips\Bespomownyj.2012.XviD.DVDRip.avi
Format                           : AVI
Format/Info                      : Audio Video Interleave
File size                        : 1.37 GiB
Duration                         : 1h 55mn
Overall bit rate                 : 1 696 Kbps
Writing application              : VirtualDubMod 1.5.10.2 (build 2540/release)
Writing library                  : VirtualDubMod build 2540/release

Video
ID                               : 0
Format                           : MPEG-4 Visual
Format profile                   : Streaming Video@L1
Format settings, BVOP            : Yes
Format settings, QPel            : No
Format settings, GMC             : No warppoints
Format settings, Matrix          : Default (MPEG)
Muxing mode                      : Packed bitstream
Codec ID                         : XVID
Codec ID/Hint                    : XviD
Duration                         : 1h 55mn
Bit rate                         : 1 495 Kbps
Width                            : 720 pixels
Height                           : 368 pixels
Display aspect ratio             : 1.957
Frame rate                       : 23.976 fps
Resolution                       : 24 bits
Colorimetry                      : 4:2:0
Scan type                        : Progressive
Bits/(Pixel*Frame)               : 0.235
Stream size                      : 1.20 GiB (88%)
Writing library                  : XviD 64

Audio
ID                               : 1
Format                           : MPEG Audio
Format version                   : Version 1
Format profile                   : Layer 3
Codec ID                         : 55
Codec ID/Hint                    : MP3
Duration                         : 1h 55mn
Bit rate mode                    : Constant
Bit rate                         : 192 Kbps
Channel(s)                       : 2 channels
Sampling rate                    : 48.0 KHz
Resolution                       : 16 bits
Stream size                      : 158 MiB (11%)
Alignment                        : Aligned on interleaves
Interleave, duration             : 42 ms (1.00 video frame)
Interleave, preload duration     : 504 ms

Семпл: http://multi-up.com/732090
picpicpic
Для увеличения картинки щелкните мышкой по превью

Этот торрент недоступен для скачивания без регистрации, однако доступен по публичной magnet-ссылке (источники с публичных трекеров). Перед использованием ссылки прочтите, пожалуйста Пользовательское соглашение, а также как можно дольше оставайтесь на раздаче! Для того, чтобы скачать сам торрент-файл (который видит больше источников), а также для того, чтобы поблагодарить релизера, вам необходимо зарегистрироваться. Если регистрироваться лень - вы можете также попробовать скачать релиз по нашим партнерским ссылкам ниже.

[underverse.su].t18759.torrent
Трекер: Зарегистрирован   [ 13.07.2012 22:56 ]  

Статус: проверено (by Паукан at 14.07.2012 07:47)
Поблагодарили: 1 человек
Тип торрента: публичный - доступные источники с открытых трекеров: 
Размер: 1,37 GB (занимает 0,31 DVDR, для записи нужно 1 болванка DVDR/RW)
 
 

Яндекс.Метрика powered by Sphinx


В Н И М А Н И Е
Сайт не распространяет и не хранит электронные версии произведений, а лишь бесплатно и без коммерческой выгоды (не требуя взамен платы,
SMS и т.д.) предоставляет доступ к создаваемому пользователями каталогу ссылок на торрент-файлы, которые содержат только списки хеш-сумм.
Убедительная просьба с жалобами обращаться напрямую к пользователю, разместившему торрент файл.

Вверх