Loading...
Error

Чудо-пес / My Dog`s Christmas Miracle (Майкл Фейфер) [2011 г., комедия, HDRip]

Статистика раздачи
Размер:  1,46 GB   |    Зарегистрирован:  4 года 4 месяца   |    Скачан:  39 раз

Полного источника не было: 10 месяцев

Сидов:  0  |  0 KB/s  ]   Личеров:  0  |  0 KB/s  ]

* - сиды/пиры с внешних источников

   
 
Автор Сообщение

RG NewCinema 

12-Июл-2012 22:24

Чудо-пес / My Dog`s Christmas Miracle


Год выпуска: 2011
Жанр: комедия
Страна: США
Режиссер: Майкл Фейфер
В ролях: Синтия Гибб, Грег Эвиган, Кендалл Сандерс, Эшли Леггат, Лесли-Энн Даун, Роберт Кэрредин, Кьяра Браво, Чарли Стюарт, Кайа Коли, Бет Ши
Сюжет фильма:
Мэделин Уолтерс - профессор в университете. Она разведена, но совсем не имеет возможности встречаться с кем-либо. Поэтому, она проводит всё свободное время с подростком-дочерью Хлоей и белым щенком Синнамоном. Архитектор Кевин Фэллон - вдовец, воспитывающий 13-летнего сына.

Они встречаются, когда Кевин приезжает в университет по делам. Синнамон сразу чувствует, что его спокойной и радостной жизни пришёл конец и умный щенок всеми силами старается помешать Мэделин и Кевину встречаться. Однако все старания чудо-пса приводят к прямо противоположному результату.

  • Мировая премьера: 1 декабря 2011

/
Качество видео: HDRip

Продолжительность: 01:31:05

Формат: avi
Видео: XviD, 720x400, 1901 kbps
Аудио: русский, многоголосый закадровый [профессиональный], AC3 5.1, 384 kbps

Код:

General
Complete name                    : H:\Видео\dvdrips\Chydo.pes.2011.P.HDRip.avi
Format                           : AVI
Format/Info                      : Audio Video Interleave
File size                        : 1.46 GiB
Duration                         : 1h 31mn
Overall bit rate                 : 2 294 Kbps
Writing application              : VirtualDubMod 1.5.10.2 (build 2540/release)
Writing library                  : VirtualDubMod build 2540/release

Video
ID                               : 0
Format                           : MPEG-4 Visual
Format profile                   : Streaming Video@L1
Format settings, BVOP            : Yes
Format settings, QPel            : No
Format settings, GMC             : No warppoints
Format settings, Matrix          : Default (MPEG)
Codec ID                         : XVID
Codec ID/Hint                    : XviD
Duration                         : 1h 31mn
Bit rate                         : 1 901 Kbps
Width                            : 720 pixels
Height                           : 400 pixels
Display aspect ratio             : 16/9
Frame rate                       : 24.000 fps
Resolution                       : 24 bits
Colorimetry                      : 4:2:0
Scan type                        : Progressive
Bits/(Pixel*Frame)               : 0.275
Stream size                      : 1.21 GiB (83%)
Writing library                  : XviD 1.2.1 (UTC 2008-12-04)

Audio
ID                               : 1
Format                           : AC-3
Format/Info                      : Audio Coding 3
Codec ID                         : 2000
Duration                         : 1h 31mn
Bit rate mode                    : Constant
Bit rate                         : 384 Kbps
Channel(s)                       : 6 channels
Channel positions                : Front: L C R, Surround: L R, LFE
Sampling rate                    : 48.0 KHz
Stream size                      : 250 MiB (17%)
Alignment                        : Split accross interleaves
Interleave, duration             : 42 ms (1.00 video frame)
Interleave, preload duration     : 500 ms

Семпл: http://sendfile.su/630716

picpicpic
Для увеличения картинки щелкните мышкой по превью

Этот торрент недоступен для скачивания без регистрации, однако доступен по публичной magnet-ссылке (источники с публичных трекеров). Перед использованием ссылки прочтите, пожалуйста Пользовательское соглашение, а также как можно дольше оставайтесь на раздаче! Для того, чтобы скачать сам торрент-файл (который видит больше источников), а также для того, чтобы поблагодарить релизера, вам необходимо зарегистрироваться. Если регистрироваться лень - вы можете также попробовать скачать релиз по нашим партнерским ссылкам ниже.

[underverse.su].t18745.torrent
Трекер: Зарегистрирован   [ 12.07.2012 22:24 ]  

Статус: проверено (by Паукан at 12.07.2012 22:54)
Поблагодарили: 2 человека
Тип торрента: публичный - доступные источники с открытых трекеров: 
Размер: 1,46 GB (занимает 0,33 DVDR, для записи нужно 1 болванка DVDR/RW)
 
 

Яндекс.Метрика powered by Sphinx


В Н И М А Н И Е
Сайт не распространяет и не хранит электронные версии произведений, а лишь бесплатно и без коммерческой выгоды (не требуя взамен платы,
SMS и т.д.) предоставляет доступ к создаваемому пользователями каталогу ссылок на торрент-файлы, которые содержат только списки хеш-сумм.
Убедительная просьба с жалобами обращаться напрямую к пользователю, разместившему торрент файл.

Вверх