Loading...
Error

Джентельмены / Da lui toi (Клемент Цзе-Кит Ченг, Чи-Кин Квок) [2010 г., боевик, драма, комедия, HDRip]

Статистика раздачи
Размер:  1,46 GB   |    Зарегистрирован:  4 года 4 месяца   |    Скачан:  25 раз

Полного источника не было: 1 год 9 месяцев

Сидов:  0  |  0 KB/s  ]   Личеров:  0  |  0 KB/s  ]

* - сиды/пиры с внешних источников

   
 
Автор Сообщение

RG NewCinema 

11-Июл-2012 17:09

Джентельмены / Da lui toi


Год выпуска: 2010
Жанр: боевик, драма, комедия
Страна: Гонконг
Режиссер: Клемент Цзе-Кит Ченг, Чи-Кин Квок
В ролях: Сю-Люн Люн, Куан-Тай Чен, Тедди Робин Кван, Ю-Нам Вонг, Дж.Дж. Джиа, Джин Онг, Хайтао Ли, Винг-Чеонг Лау, Шоу Йин Йин, Уай-Ман Чан
Сюжет фильма:
Чеунг – типичный представитель офисного планктона, хилый и слабый размазня, которого обижают все, кому не лень. Очередным его заданием становится поездка в небольшой городок, где он должен помочь местному бизнесмену выселить упирающихся жителей. Но на месте Чеунг знакомится с престарелым мастером кунгфу Тигром (Брюс Леунг) и его коллегой Драконом (Чен Куан Тай) и в конце концов понимает, что такое быть мужчиной без страха и упрека.

  • Мировая премьера: 26 марта 2010

/
Качество видео: HDRip

Продолжительность: 01:36:47

Формат: avi
Видео: XviD, 720x304, 1961 kbps
Аудио: русский, одноголосый закадровый [любительский], AC3 2.0, 192 kbps

Код:

General
Complete name                    : H:\Видео\dvdrips\Dzhenteljmeny.avi
Format                           : AVI
Format/Info                      : Audio Video Interleave
File size                        : 1.46 GiB
Duration                         : 1h 36mn
Overall bit rate                 : 2 163 Kbps
Writing application              : VirtualDubMod 1.5.10.2 (build 2540/release)
Writing library                  : VirtualDubMod build 2540/release

Video
ID                               : 0
Format                           : MPEG-4 Visual
Format profile                   : Streaming Video@L1
Format settings, BVOP            : Yes
Format settings, QPel            : No
Format settings, GMC             : No warppoints
Format settings, Matrix          : Default (MPEG)
Codec ID                         : XVID
Codec ID/Hint                    : XviD
Duration                         : 1h 36mn
Bit rate                         : 1 962 Kbps
Width                            : 720 pixels
Height                           : 304 pixels
Display aspect ratio             : 2.35
Frame rate                       : 23.976 fps
Resolution                       : 24 bits
Colorimetry                      : 4:2:0
Scan type                        : Progressive
Bits/(Pixel*Frame)               : 0.374
Stream size                      : 1.33 GiB (91%)
Writing library                  : XviD 1.2.1 (UTC 2008-12-04)

Audio
ID                               : 1
Format                           : AC-3
Format/Info                      : Audio Coding 3
Codec ID                         : 2000
Duration                         : 1h 36mn
Bit rate mode                    : Constant
Bit rate                         : 192 Kbps
Channel(s)                       : 2 channels
Channel positions                : L R
Sampling rate                    : 48.0 KHz
Stream size                      : 133 MiB (9%)
Alignment                        : Split accross interleaves
Interleave, duration             : 42 ms (1.00 video frame)
Interleave, preload duration     : 500 ms

Семпл: http://multi-up.com/731198
picpicpic
Для увеличения картинки щелкните мышкой по превью

Этот торрент недоступен для скачивания без регистрации, однако доступен по публичной magnet-ссылке (источники с публичных трекеров). Перед использованием ссылки прочтите, пожалуйста Пользовательское соглашение, а также как можно дольше оставайтесь на раздаче! Для того, чтобы скачать сам торрент-файл (который видит больше источников), а также для того, чтобы поблагодарить релизера, вам необходимо зарегистрироваться. Если регистрироваться лень - вы можете также попробовать скачать релиз по нашим партнерским ссылкам ниже.

[underverse.su].t18735.torrent
Трекер: Зарегистрирован   [ 11.07.2012 17:09 ]  

Статус: проверено (by WeaSel at 11.07.2012 19:01)
Поблагодарили: пока никто не поблагодарил...
Тип торрента: публичный - доступные источники с открытых трекеров: 
Размер: 1,46 GB (занимает 0,33 DVDR, для записи нужно 1 болванка DVDR/RW)
 
 

Яндекс.Метрика powered by Sphinx


В Н И М А Н И Е
Сайт не распространяет и не хранит электронные версии произведений, а лишь бесплатно и без коммерческой выгоды (не требуя взамен платы,
SMS и т.д.) предоставляет доступ к создаваемому пользователями каталогу ссылок на торрент-файлы, которые содержат только списки хеш-сумм.
Убедительная просьба с жалобами обращаться напрямую к пользователю, разместившему торрент файл.

Вверх