Loading...
Error

Неоновая плоть / Carne de neon (Пако Кабезас) [2010 г., триллер, драма, комедия, криминал, HDRip]

Статистика раздачи
Размер:  1,46 GB   |    Зарегистрирован:  4 года 4 месяца   |    Скачан:  17 раз

Полного источника не было: 1 год 9 месяцев

Сидов:  0  |  0 KB/s  ]   Личеров:  0  |  0 KB/s  ]

* - сиды/пиры с внешних источников

   
 
Автор Сообщение

RG NewCinema 

10-Июл-2012 20:09

Неоновая плоть / Carne de neon


Год выпуска: 2010
Жанр: триллер, драма, комедия, криминал
Страна: Швеция , Франция , Испания , Аргентина
Режиссер: Пако Кабезас
В ролях: Марио Касас, Винсент Ромеро, Лусиано Касерес, Макарена Гомес, Дамасо Конде, Ванесса Оливейра, Дарио Грандинетти, Бланка Суарес, Антонио де ла Торре, Анхела Молина
Сюжет фильма:
Рики вырос на улице в окружении проституток и наркоманов, после того как остался один в двенадцатилетнем возрасте. Теперь ему 23 года и он решает открыть бордель, клуб под названием «Хиросима», в качестве подарка матери проститутке, которая вот-вот выйдет из тюрьмы. Рики хочет, чтобы Пура руководила клубом и забыла о своем прошлом продажной женщины. В этом ему помогают многочисленные друзья, порой весьма эксцентричные. Рики пытается пробудить материнские чувства и любовь в душе Пуры, которая бросила его много лет назад. Однако добиться этого оказывается не так просто.

  • Мировая премьера: 9 октября 2010
  • Российская премьера: 1 декабря 2011, A-One Films

|
Качество видео: HDRip

Продолжительность: 01:41:51

Формат: avi
Видео: XviD, 720x304, 1654 kbps
Аудио: русский, многоголосый закадровый [профессиональный], AC3 5.1, 384 kbps

Код:

General
Complete name                    : H:\Видео\dvdrips\Neonovaja.plot.2010.P.HDRip.IRONCLUB.avi
Format                           : AVI
Format/Info                      : Audio Video Interleave
File size                        : 1.46 GiB
Duration                         : 1h 41mn
Overall bit rate                 : 2 048 Kbps
Movie name                       : Neonovaya.plot.2010.P.HDRip.IRONCLUB
Director                         : IRONCLUB
Genre                            : Comedy
Writing application              : VirtualDubMod 1.5.10.2 (build 2540/release)
Original source form/Name        : Movie
Copyright                        : http://ironclub.tv/

Video
ID                               : 0
Format                           : MPEG-4 Visual
Format profile                   : Streaming Video@L1
Format settings, BVOP            : Yes
Format settings, QPel            : No
Format settings, GMC             : No warppoints
Format settings, Matrix          : Custom
Codec ID                         : XVID
Codec ID/Hint                    : XviD
Duration                         : 1h 41mn
Bit rate                         : 1 654 Kbps
Width                            : 720 pixels
Height                           : 304 pixels
Display aspect ratio             : 2.35
Frame rate                       : 25.000 fps
Resolution                       : 24 bits
Colorimetry                      : 4:2:0
Scan type                        : Progressive
Bits/(Pixel*Frame)               : 0.302
Stream size                      : 1.18 GiB (81%)
Writing library                  : XviD 1.2.1 (UTC 2008-12-04)

Audio
ID                               : 1
Format                           : AC-3
Format/Info                      : Audio Coding 3
Codec ID                         : 2000
Duration                         : 1h 41mn
Bit rate mode                    : Constant
Bit rate                         : 384 Kbps
Channel(s)                       : 6 channels
Channel positions                : Front: L C R, Surround: L R, LFE
Sampling rate                    : 48.0 KHz
Stream size                      : 280 MiB (19%)
Alignment                        : Split accross interleaves
Interleave, duration             : 40 ms (1.00 video frame)
Interleave, preload duration     : 500 ms

Семпл: http://multi-up.com/731034
picpicpic
Для увеличения картинки щелкните мышкой по превью

Этот торрент недоступен для скачивания без регистрации, однако доступен по публичной magnet-ссылке (источники с публичных трекеров). Перед использованием ссылки прочтите, пожалуйста Пользовательское соглашение, а также как можно дольше оставайтесь на раздаче! Для того, чтобы скачать сам торрент-файл (который видит больше источников), а также для того, чтобы поблагодарить релизера, вам необходимо зарегистрироваться. Если регистрироваться лень - вы можете также попробовать скачать релиз по нашим партнерским ссылкам ниже.

[underverse.su].t18722.torrent
Трекер: Зарегистрирован   [ 10.07.2012 20:09 ]  

Статус: проверено (by Паукан at 11.07.2012 01:18)
Поблагодарили: пока никто не поблагодарил...
Тип торрента: публичный - доступные источники с открытых трекеров: 
Размер: 1,46 GB (занимает 1/3 DVDR, для записи нужно 1 болванка DVDR/RW)
 
 

Яндекс.Метрика powered by Sphinx


В Н И М А Н И Е
Сайт не распространяет и не хранит электронные версии произведений, а лишь бесплатно и без коммерческой выгоды (не требуя взамен платы,
SMS и т.д.) предоставляет доступ к создаваемому пользователями каталогу ссылок на торрент-файлы, которые содержат только списки хеш-сумм.
Убедительная просьба с жалобами обращаться напрямую к пользователю, разместившему торрент файл.

Вверх