Loading...
Error

Наездник рассвета / Dawn Rider (Терри Майлз) [2012 г., вестерн, HDRip]

Статистика раздачи
Размер:  1,37 GB   |    Зарегистрирован:  4 года 4 месяца   |    Скачан:  30 раз

Полного источника не было: 5 месяцев 17 дней

Сидов:  0  |  0 KB/s  ]   Личеров:  0  |  0 KB/s  ]

* - сиды/пиры с внешних источников

   
 
Автор Сообщение

RG NewCinema 

09-Июл-2012 20:20

Наездник рассвета / Dawn Rider


Год выпуска: 2012
Жанр: вестерн
Страна: Канада
Режиссер: Терри Майлз
В ролях: Кристиан Слэйтер, Джилл Хеннесси, Дональд Сазерленд, Мэтт Беллефло, Джордж Каньон, Дуглас Чэпман, Клод Дюамель, Дж. Майкл Грэй, Адриан Хью, Локлин Манро
Сюжет фильма:
Действие этого вестерна происходит на американском Западе. Когда бандиты в масках застрелили отца Джона Мейсона, то он, хорошо вооружившись, пускается за ними в погоню чтобы отомстить за смерть отца. Во время поисков он влюбляется в решительную и красивую женщину Элис, в которую так же влюблен его лучший друг. Фильм снят в лучших традициях ранних вестернов с участием короля вестернов Джона Уэйна и является захватывающей сагой о долге, доблести и мщении на американском Западе.

  • Мировая премьера: 29 мая 2012

/
Качество видео: HDRip

Продолжительность: 01:33:41

Формат: avi
Видео: XviD, 720x304, 1631 kbps
Аудио: русский, двухголосый закадровый [студия "Райдо"], AC3 5.1, 448 kbps

Код:

General
Complete name                    : H:\Видео\dvdrips\Naezdnik.rassveta2012.L2.HDRip.Goliaf.avi
Format                           : AVI
Format/Info                      : Audio Video Interleave
File size                        : 1.37 GiB
Duration                         : 1h 33mn
Overall bit rate                 : 2 089 Kbps
Writing application              : VirtualDubMod 1.5.10.2 (build 2540/release)
Writing library                  : VirtualDubMod build 2540/release

Video
ID                               : 0
Format                           : MPEG-4 Visual
Format profile                   : Streaming Video@L1
Format settings, BVOP            : Yes
Format settings, QPel            : No
Format settings, GMC             : No warppoints
Format settings, Matrix          : Default (MPEG)
Codec ID                         : XVID
Codec ID/Hint                    : XviD
Duration                         : 1h 33mn
Bit rate                         : 1 632 Kbps
Width                            : 720 pixels
Height                           : 304 pixels
Display aspect ratio             : 2.35
Frame rate                       : 23.976 fps
Resolution                       : 24 bits
Colorimetry                      : 4:2:0
Scan type                        : Progressive
Bits/(Pixel*Frame)               : 0.311
Stream size                      : 1.07 GiB (78%)
Writing library                  : XviD 1.2.1 (UTC 2008-12-04)

Audio
ID                               : 1
Format                           : AC-3
Format/Info                      : Audio Coding 3
Codec ID                         : 2000
Duration                         : 1h 33mn
Bit rate mode                    : Constant
Bit rate                         : 448 Kbps
Channel(s)                       : 6 channels
Channel positions                : Front: L C R, Surround: L R, LFE
Sampling rate                    : 48.0 KHz
Stream size                      : 300 MiB (21%)
Alignment                        : Split accross interleaves
Interleave, duration             : 42 ms (1.00 video frame)
Interleave, preload duration     : 500 ms

Семпл: http://multi-up.com/730575

picpicpic
Для увеличения картинки щелкните мышкой по превью

Этот торрент недоступен для скачивания без регистрации, однако доступен по публичной magnet-ссылке (источники с публичных трекеров). Перед использованием ссылки прочтите, пожалуйста Пользовательское соглашение, а также как можно дольше оставайтесь на раздаче! Для того, чтобы скачать сам торрент-файл (который видит больше источников), а также для того, чтобы поблагодарить релизера, вам необходимо зарегистрироваться. Если регистрироваться лень - вы можете также попробовать скачать релиз по нашим партнерским ссылкам ниже.

[underverse.su].t18702.torrent
Трекер: Зарегистрирован   [ 09.07.2012 20:20 ]  

Статус: проверено (by Паукан at 09.07.2012 20:59)
Поблагодарили: 1 человек
Тип торрента: публичный - доступные источники с открытых трекеров: 
Размер: 1,37 GB (занимает 0,31 DVDR, для записи нужно 1 болванка DVDR/RW)
 
 

shunichka Пол:Муж

14-Июл-2012 08:01

:)

Яндекс.Метрика powered by Sphinx


В Н И М А Н И Е
Сайт не распространяет и не хранит электронные версии произведений, а лишь бесплатно и без коммерческой выгоды (не требуя взамен платы,
SMS и т.д.) предоставляет доступ к создаваемому пользователями каталогу ссылок на торрент-файлы, которые содержат только списки хеш-сумм.
Убедительная просьба с жалобами обращаться напрямую к пользователю, разместившему торрент файл.

Вверх