Loading...
Error

Марта, Марси Мэй, Марлен / Martha Marcy May Marlene (Шон Дуркин) [2011 г., триллер, драма, HDRip]

Статистика раздачи
Размер:  1,36 GB   |    Зарегистрирован:  4 года 4 месяца   |    Скачан:  6 раз

Полного источника не было: 4 года

Сидов:  0  |  0 KB/s  ]   Личеров:  0  |  0 KB/s  ]

* - сиды/пиры с внешних источников

   
 
Автор Сообщение

RG NewCinema 

09-Июл-2012 19:46

Марта, Марси Мэй, Марлен / Martha Marcy May Marlene


Год выпуска: 2011
Жанр: триллер, драма
Страна: США
Режиссер: Шон Дуркин
В ролях: Элизабет Олсен, Кристофер Эбботт, Брэйди Корбет, Хью Дэнси, Мария Дицциа, Джулия Гарнер, Джон Хоукс, Луиса Краузе, Сара Полсон, Адам Дэвид Томпсон
Сюжет фильма:
Сбежав из секты и от ее харизматичного лидера, Марта пытается восстановиться и вернуться к нормальной жизни. Она ищет поддержки у своей старшей сестры Люси и ее мужа, с которыми давно не общалась, но не находит в себе сил признаться им в истинной причине своего долгого отсутствия. Она убеждена, что члены секты ее преследуют. Мучительные воспоминания, не дающие девушке покоя, перерастают в паранойю, и граница между реальностью и иллюзией постепенно размывается…

  • Мировая премьера: 21 января 2011
  • Российская премьера: 2 февраля 2012, Двадцатый Век Фокс СНГ

|
Качество видео: HDRip

Продолжительность: 01:41:54

Формат: avi
Видео: XviD, 720x304, 1459 kbps
Аудио: русский, многоголосый закадровый [профессиональный], AC3 5.1, 448 kbps

Код:

General
Complete name                    : H:\Видео\dvdrips\Marta.Marsi.May.Marlen.2011.P.HDRip.avi
Format                           : AVI
Format/Info                      : Audio Video Interleave
Format profile                   : OpenDML
File size                        : 1.36 GiB
Duration                         : 1h 41mn
Overall bit rate                 : 1 913 Kbps
Writing application              : AVI-Mux GUI 1.17.8.3, Feb 16 201019:42:50

Video
ID                               : 0
Format                           : MPEG-4 Visual
Format profile                   : Streaming Video@L1
Format settings, BVOP            : Yes
Format settings, QPel            : No
Format settings, GMC             : No warppoints
Format settings, Matrix          : Default (MPEG)
Codec ID                         : XVID
Codec ID/Hint                    : XviD
Duration                         : 1h 41mn
Bit rate                         : 1 460 Kbps
Width                            : 720 pixels
Height                           : 304 pixels
Display aspect ratio             : 2.35
Frame rate                       : 23.976 fps
Resolution                       : 24 bits
Colorimetry                      : 4:2:0
Scan type                        : Progressive
Bits/(Pixel*Frame)               : 0.278
Stream size                      : 1.04 GiB (76%)
Writing library                  : XviD 1.2.1 (UTC 2008-12-04)

Audio
ID                               : 1
Format                           : AC-3
Format/Info                      : Audio Coding 3
Codec ID                         : 2000
Duration                         : 1h 41mn
Bit rate mode                    : Constant
Bit rate                         : 448 Kbps
Channel(s)                       : 6 channels
Channel positions                : Front: L C R, Surround: L R, LFE
Sampling rate                    : 48.0 KHz
Stream size                      : 327 MiB (23%)
Alignment                        : Aligned on interleaves
Interleave, duration             : 64 ms (1.53 video frames)
Interleave, preload duration     : 192 ms
Title                            : 00800.track_4360

Семпл: http://multi-up.com/730556
picpicpic
Для увеличения картинки щелкните мышкой по превью

Этот торрент недоступен для скачивания без регистрации, однако доступен по публичной magnet-ссылке (источники с публичных трекеров). Перед использованием ссылки прочтите, пожалуйста Пользовательское соглашение, а также как можно дольше оставайтесь на раздаче! Для того, чтобы скачать сам торрент-файл (который видит больше источников), а также для того, чтобы поблагодарить релизера, вам необходимо зарегистрироваться. Если регистрироваться лень - вы можете также попробовать скачать релиз по нашим партнерским ссылкам ниже.

[underverse.su].t18700.torrent
Трекер: Зарегистрирован   [ 09.07.2012 19:46 ]  

Статус: проверено (by Паукан at 09.07.2012 20:58)
Поблагодарили: пока никто не поблагодарил...
Тип торрента: публичный - доступные источники с открытых трекеров: 
Размер: 1,36 GB (занимает 0,31 DVDR, для записи нужно 1 болванка DVDR/RW)
 
 
Похожие темы
Форум Тема Автор Торрент Отв. Посл. сооб.
Зарубежное кино [DVDRip, Low-Res HDRip, и т.д.] Марта, Марси Мэй, Марлен / Martha Marcy May Marlene (Шон Дуркин) [2011 г., триллер, драма, DVDRip] 90ytr90
1 | 1

0 | 352

5

06.04.2012 15:55


Яндекс.Метрика powered by Sphinx


В Н И М А Н И Е
Сайт не распространяет и не хранит электронные версии произведений, а лишь бесплатно и без коммерческой выгоды (не требуя взамен платы,
SMS и т.д.) предоставляет доступ к создаваемому пользователями каталогу ссылок на торрент-файлы, которые содержат только списки хеш-сумм.
Убедительная просьба с жалобами обращаться напрямую к пользователю, разместившему торрент файл.

Вверх