Loading...
Error

Туннель / The Tunnel (Карло Ледесма) [2011 г., ужасы, триллер, драма, HDRip]

Статистика раздачи
Размер:  1,46 GB   |    Зарегистрирован:  4 года 5 месяцев   |    Скачан:  27 раз

Полного источника не было: 3 месяца

Сидов:  0  |  0 KB/s  ]   Личеров:  0  |  0 KB/s  ]

* - сиды/пиры с внешних источников

   
 
Автор Сообщение

RG NewCinema 

09-Июл-2012 18:46

Туннель / The Tunnel


Год выпуска: 2011
Жанр: ужасы, триллер, драма
Страна: Австралия
Режиссер: Карло Ледесма
В ролях: Бел Делия, Энди Родореда, Стив Дэвис, Люк Арнольд, Джеймс Кэйтлин, Бен МакЛэйн, Ребекка Клэй, Шеннон Джонс
Сюжет фильма:
Для решения проблем с водоснабжением власти Сиднея выдвигают проект по очистке и использованию объёмов воды, скопившейся в старых подземных коллекторах под городом. При этом чиновники отрицают тот факт, что брошенные туннели давно стали местом жительства городских бездомных, рискующих в случае осуществления проекта потерять последнее прибежище. Однако помимо бомжей в этих катакомбах обитает и кое-что ещё, с чем предстоит встретиться группе спустившихся под землю документалистов.

  • Мировая премьера: 19 мая 2011

/
Качество видео: HDRip

Продолжительность: 01:31:14

Формат: avi
Видео: XviD, 720x304, 2094 kbps
Аудио: русский, двухголосый закадровый [любительский, den904 и DeadSno], AC3 2.0, 192 kbps

Код:

General
Complete name                    : H:\Видео\dvdrips\Туннель.avi
Format                           : AVI
Format/Info                      : Audio Video Interleave
File size                        : 1.46 GiB
Duration                         : 1h 31mn
Overall bit rate                 : 2 296 Kbps
Writing application              : VirtualDubMod 1.5.10.3 | www.virtualdub-fr.org || (build 2550/release)
Writing library                  : VirtualDubMod build 2550/release

Video
ID                               : 0
Format                           : MPEG-4 Visual
Format profile                   : Streaming Video@L1
Format settings, BVOP            : Yes
Format settings, QPel            : No
Format settings, GMC             : No warppoints
Format settings, Matrix          : Default (MPEG)
Codec ID                         : XVID
Codec ID/Hint                    : XviD
Duration                         : 1h 31mn
Bit rate                         : 2 094 Kbps
Width                            : 720 pixels
Height                           : 304 pixels
Display aspect ratio             : 2.35
Frame rate                       : 25.000 fps
Resolution                       : 24 bits
Colorimetry                      : 4:2:0
Scan type                        : Progressive
Bits/(Pixel*Frame)               : 0.383
Stream size                      : 1.33 GiB (91%)
Writing library                  : XviD 1.2.1 (UTC 2008-12-04)

Audio
ID                               : 1
Format                           : AC-3
Format/Info                      : Audio Coding 3
Codec ID                         : 2000
Duration                         : 1h 31mn
Bit rate mode                    : Constant
Bit rate                         : 192 Kbps
Channel(s)                       : 2 channels
Channel positions                : L R
Sampling rate                    : 48.0 KHz
Stream size                      : 125 MiB (8%)
Alignment                        : Split accross interleaves
Interleave, duration             : 40 ms (1.00 video frame)
Interleave, preload duration     : 500 ms

Семпл: http://multi-up.com/730324
picpicpic
Для увеличения картинки щелкните мышкой по превью

Этот торрент недоступен для скачивания без регистрации, однако доступен по публичной magnet-ссылке (источники с публичных трекеров). Перед использованием ссылки прочтите, пожалуйста Пользовательское соглашение, а также как можно дольше оставайтесь на раздаче! Для того, чтобы скачать сам торрент-файл (который видит больше источников), а также для того, чтобы поблагодарить релизера, вам необходимо зарегистрироваться. Если регистрироваться лень - вы можете также попробовать скачать релиз по нашим партнерским ссылкам ниже.

[underverse.su].t18699.torrent
Трекер: Зарегистрирован   [ 09.07.2012 18:46 ]  

Статус: проверено (by Паукан at 09.07.2012 18:51)
Поблагодарили: 1 человек
Тип торрента: публичный - доступные источники с открытых трекеров: 
Размер: 1,46 GB (занимает 0,33 DVDR, для записи нужно 1 болванка DVDR/RW)
 
 

Яндекс.Метрика powered by Sphinx


В Н И М А Н И Е
Сайт не распространяет и не хранит электронные версии произведений, а лишь бесплатно и без коммерческой выгоды (не требуя взамен платы,
SMS и т.д.) предоставляет доступ к создаваемому пользователями каталогу ссылок на торрент-файлы, которые содержат только списки хеш-сумм.
Убедительная просьба с жалобами обращаться напрямую к пользователю, разместившему торрент файл.

Вверх