Loading...
Error

Отвези меня домой / Take Me Home (Сэм Джагер) [2011 г., мелодрама, комедия, DVDRip]

Статистика раздачи
Размер:  1,46 GB   |    Зарегистрирован:  4 года 4 месяца   |    Скачан:  26 раз

Полного источника не было: 3 года 2 месяца

Сидов:  0  |  0 KB/s  ]   Личеров:  0  |  0 KB/s  ]

* - сиды/пиры с внешних источников

   
 
Автор Сообщение

RG NewCinema 

09-Июл-2012 14:51

Отвези меня домой / Take Me Home


Год выпуска: 2011
Жанр: мелодрама, комедия
Страна: США
Режиссер: Сэм Джагер
В ролях: Бри Тернер, Сэм Джагер, Виктор Гарбер, Эмбер Джагер, Лин Шэй, Кристин Роуз, Мишель Крусик, Бреннан Эллиотт, Аманда Ланд, Даг Пурселл
Сюжет фильма:
Девушка из Нью-Йорка, расстроенная из-за своего неудачного брака и болезни отца, предлагает нелегальному таксисту 5 тысяч долларов за то, чтобы он отвёз её на другой конец Америки в Калифорнию. По дороге между ними возникают трения и перепалки, но вскоре они начинают чувствовать взаимное притяжение.

  • Мировая премьера: 19 апреля 2011

/
Качество видео: DVDRip

Продолжительность: 01:36:55

Формат: avi
Видео: XviD, 720x304, 2018 kbps
Аудио: русский, многоголосый закадровый [профессиональный], MP3 2.0, 128 kbps

Код:

General
Complete name                    : H:\Видео\dvdrips\Take.Me.Home.2011.DVDRip..1400MB.avi
Format                           : AVI
Format/Info                      : Audio Video Interleave
File size                        : 1.46 GiB
Duration                         : 1h 36mn
Overall bit rate                 : 2 156 Kbps
Writing application              : VirtualDubMod 1.5.10.3 | www.virtualdub-fr.org || (build 2550/release)
Writing library                  : VirtualDubMod build 2550/release

Video
ID                               : 0
Format                           : MPEG-4 Visual
Format profile                   : Streaming Video@L1
Format settings, BVOP            : Yes
Format settings, QPel            : No
Format settings, GMC             : No warppoints
Format settings, Matrix          : Default (MPEG)
Codec ID                         : XVID
Codec ID/Hint                    : XviD
Duration                         : 1h 36mn
Bit rate                         : 2 019 Kbps
Width                            : 720 pixels
Height                           : 304 pixels
Display aspect ratio             : 2.35
Frame rate                       : 23.976 fps
Resolution                       : 24 bits
Colorimetry                      : 4:2:0
Scan type                        : Progressive
Bits/(Pixel*Frame)               : 0.385
Stream size                      : 1.37 GiB (94%)
Writing library                  : XviD 1.2.1 (UTC 2008-12-04)

Audio
ID                               : 1
Format                           : MPEG Audio
Format version                   : Version 1
Format profile                   : Layer 3
Codec ID                         : 55
Codec ID/Hint                    : MP3
Duration                         : 1h 36mn
Bit rate mode                    : Constant
Bit rate                         : 128 Kbps
Channel(s)                       : 2 channels
Sampling rate                    : 48.0 KHz
Resolution                       : 16 bits
Stream size                      : 88.7 MiB (6%)
Alignment                        : Aligned on interleaves
Interleave, duration             : 42 ms (1.00 video frame)
Interleave, preload duration     : 504 ms

picpicpic
Для увеличения картинки щелкните мышкой по превью

Этот торрент недоступен для скачивания без регистрации, однако доступен по публичной magnet-ссылке (источники с публичных трекеров). Перед использованием ссылки прочтите, пожалуйста Пользовательское соглашение, а также как можно дольше оставайтесь на раздаче! Для того, чтобы скачать сам торрент-файл (который видит больше источников), а также для того, чтобы поблагодарить релизера, вам необходимо зарегистрироваться. Если регистрироваться лень - вы можете также попробовать скачать релиз по нашим партнерским ссылкам ниже.

[underverse.su].t18698.torrent
Трекер: Зарегистрирован   [ 09.07.2012 14:51 ]  

Статус: проверено (by garry at 09.07.2012 16:01)
Поблагодарили: 1 человек
Тип торрента: публичный - доступные источники с открытых трекеров: 
Размер: 1,46 GB (занимает 0,33 DVDR, для записи нужно 1 болванка DVDR/RW)
 
 

Яндекс.Метрика powered by Sphinx


В Н И М А Н И Е
Сайт не распространяет и не хранит электронные версии произведений, а лишь бесплатно и без коммерческой выгоды (не требуя взамен платы,
SMS и т.д.) предоставляет доступ к создаваемому пользователями каталогу ссылок на торрент-файлы, которые содержат только списки хеш-сумм.
Убедительная просьба с жалобами обращаться напрямую к пользователю, разместившему торрент файл.

Вверх