Loading...
Error

Стрела. Абсолютное оружие / Choi-jong-byeong-gi Hwal (Хан-Мин Ким) [2011 г., боевик, история, HDRip] (Rus, Kor) HQ Underverse

Статистика раздачи
Размер:  2,17 GB   |    Зарегистрирован:  4 года 4 месяца   |    Скачан:  100 раз
Сидов:  8  |  0 KB/s  ]   Личеров:  1  |  0 KB/s  ]

* - сиды/пиры с внешних источников

   
 
Автор Сообщение

HQ Underverse 

09-Июл-2012 11:46

Стрела. Абсолютное оружие / Choi-jong-byeong-gi Hwal


Год выпуска: 2011
Жанр: боевик, история
Страна: Корея Южная
Режиссер: Хан-Мин Ким
В ролях: Хае-ил Парк, Сенг-юнг Рио, Мун Чхэ Вон, Му-Йол Ким, Хан-Ви Ли, Кйонг-Йонг Ли, Ги-Вонг Парк, Рай Хеи Отани, Ким Гу Тхэк
Сюжет фильма:
В 1636 году полчища маньчжуров пришли на земли государства Чосон, неся с собой смерть и разорение. Во время нападения на одну из деревень враги взяли в плен Ча Ин, юную сестру лучника Нам И, и ее жениха Со Гуна. Отважный герой решает во что бы то ни стало отыскать родных и спасти их от незавидной доли рабов в чужой стране. С этой целью он, повесив на спину свой верный лук, доставшийся ему от отца, и колчан со стрелами, отправляется в Китай, преследуя отряд, напавший на его родную деревню. Вскоре слухи о выдающимся лучнике, не знающем поражения, достигают маньчжурского войска. Поймать и обезвредить неуловимого Нам И поручают полководцу Джушинта и его людям.

  • Мировая премьера: 10 августа 2011

|
Качество видео: HDRip

Продолжительность: 02:02:25

Формат: avi
Видео: XviD, 720x304, 2139 kbps
Аудио #1: русский, одноголосый закадровый [Ю. Сербин], AC3 5.1, 384 kbps
Аудио #2: корейский, оригинал, AC3 5.1, 384 kbps (отдельным файлом: здесь)
Субтитры #1: внешние, SRT, английский (на narod.ru)
Субтитры #2: внешние, SRT, русский (на narod.ru)

Код:

General
Complete name                    : \\Servak\d\Видео\HQ\Стрела - абсолютное оружие\War.Of.The.Arrows.2011.HDRip.XviD.AC3.Rus.L1.Serbin.HQ.Underverse.avi
Format                           : AVI
Format/Info                      : Audio Video Interleave
Format profile                   : OpenDML
File size                        : 2.17 GiB
Duration                         : 2h 2mn
Overall bit rate                 : 2 535 Kbps
Writing application              : VirtualDubMod 1.5.10.2 (build 2542/release)
Writing library                  : VirtualDubMod build 2542/release

Video
ID                               : 0
Format                           : MPEG-4 Visual
Format profile                   : Streaming Video@L1
Format settings, BVOP            : Yes
Format settings, QPel            : No
Format settings, GMC             : No warppoints
Format settings, Matrix          : Custom
Muxing mode                      : Packed bitstream
Codec ID                         : XVID
Codec ID/Hint                    : XviD
Duration                         : 2h 2mn
Bit rate                         : 2 139 Kbps
Width                            : 720 pixels
Height                           : 304 pixels
Display aspect ratio             : 2.35
Frame rate                       : 23.976 fps
Resolution                       : 24 bits
Colorimetry                      : 4:2:0
Scan type                        : Progressive
Bits/(Pixel*Frame)               : 0.408
Stream size                      : 1.83 GiB (84%)
Writing library                  : XviD 64

Audio
ID                               : 1
Format                           : AC-3
Format/Info                      : Audio Coding 3
Codec ID                         : 2000
Duration                         : 2h 2mn
Bit rate mode                    : Constant
Bit rate                         : 384 Kbps
Channel(s)                       : 6 channels
Channel positions                : Front: L C R, Surround: L R, LFE
Sampling rate                    : 48.0 KHz
Stream size                      : 336 MiB (15%)
Alignment                        : Split accross interleaves
Interleave, duration             : 42 ms (1.00 video frame)
Interleave, preload duration     : 500 ms

Релиз группы:
picpicpic
Для увеличения картинки щелкните мышкой по превью

Этот торрент недоступен для скачивания без регистрации, однако доступен по публичной magnet-ссылке (источники с публичных трекеров). Перед использованием ссылки прочтите, пожалуйста Пользовательское соглашение, а также как можно дольше оставайтесь на раздаче! Для того, чтобы скачать сам торрент-файл (который видит больше источников), а также для того, чтобы поблагодарить релизера, вам необходимо зарегистрироваться. Если регистрироваться лень - вы можете также попробовать скачать релиз по нашим партнерским ссылкам ниже.

[underverse.su].t18693.torrent
Трекер: Зарегистрирован   [ 09.07.2012 11:46 ]  

Статус: проверено (by garry at 09.07.2012 11:49)
Поблагодарили: 4 человека
Тип торрента: публичный - доступные источники с открытых трекеров: 
Размер: 2,17 GB (занимает 1/2 DVDR, для записи нужно 1 болванка DVDR/RW)
 
 
Похожие темы
Форум Тема Автор Торрент Отв. Посл. сооб.
Зарубежное кино [DVDRip, Low-Res HDRip, и т.д.] Стрела. Абсолютное оружие / Choi-jong-byeong-gi Hwal (Ким Хан Мин) [2011 г., боевик, история, HDTVRip] RG NewCinema
0 | 0

0 | 680

19

11.01.2012 17:47

Зарубежное кино [DVDRip, Low-Res HDRip, и т.д.] Стрела. Абсолютное оружие / Choi-jong-byeong-gi Hwal (Ким Хан Мин) [2011 г., боевик, история, BDRip-AVC] AVO (Ю.Сербин) 90ytr90
17 | 2

0 | 1085

34

25.04.2013 16:12


Яндекс.Метрика powered by Sphinx


В Н И М А Н И Е
Сайт не распространяет и не хранит электронные версии произведений, а лишь бесплатно и без коммерческой выгоды (не требуя взамен платы,
SMS и т.д.) предоставляет доступ к создаваемому пользователями каталогу ссылок на торрент-файлы, которые содержат только списки хеш-сумм.
Убедительная просьба с жалобами обращаться напрямую к пользователю, разместившему торрент файл.

Вверх