Loading...
Error

Район №9 / District 9 (Нил Бломкамп) [2009 г., фантастика, боевик, триллер, HDRip] (Rus, Ukr, Eng) HQ Underverse

Статистика раздачи
Размер:  2,17 GB   |    Зарегистрирован:  4 года 4 месяца   |    Скачан:  26 раз
Сидов:  1  |  0 KB/s  ]   Личеров:  0  |  0 KB/s  ]

* - сиды/пиры с внешних источников

   
 
Автор Сообщение

HQ Underverse 

08-Июл-2012 12:52

Район №9 / District 9


Год выпуска: 2009
Жанр: фантастика, боевик, триллер
Страна: США
Режиссер: Нил Бломкамп
В ролях: Шарлто Копли, Джейсон Коуп, Натали Болтт, Сильвен Страйк, Элизабет Мкандави, Джон Самнер, Уильям Аллен Янг, Грег Мелвилл-Смит, Ник Блейк, Морена Буса Сесатса
Сюжет фильма:
Более 20 лет назад инопланетяне установили первый контакт с Землей. Люди были готовы ко всему - от враждебного вторжения до невероятного технологического прорыва. Ни того, ни другого не произошло. Пришельцы оказались беженцами со своей собственной планеты, и пока мировое сообщество решало, что с ними делать дальше, для них был организован временный лагерь в южноафриканском Районе N9.

  • Мировая премьера: 13 августа 2009
  • Российская премьера: 13 августа 2009, BVSPR Sony

|
Качество видео: HDRip

Продолжительность: 01:52:15

Формат: avi
Видео: XviD, 720x384, 2307 kbps
Аудио #1: русский, дублированный [лицензия], AC3 5.1, 448 kbps
Аудио #2: украинский, дублированный [лицензия], AC3 5.1, 448 kbps (отдельным файлом: здесь)
Аудио #3: английский, оригинал, AC3 5.1, 448 kbps (отдельным файлом: здесь)
Субтитры #1: внешние, SRT, английский (на narod.ru)
Субтитры #2: внешние, SRT, русский (на narod.ru)
Субтитры #3: внешние, SRT, русский (форсированный) (на narod.ru)

Код:

General
Complete name                    : \\Servak\d\Видео\HQ\Район 9\District.9.2009.HDRip.XviD.AC3.Rus.D.HQ.Underverse.avi
Format                           : AVI
Format/Info                      : Audio Video Interleave
Format profile                   : OpenDML
File size                        : 2.17 GiB
Duration                         : 1h 52mn
Overall bit rate                 : 2 767 Kbps
Writing application              : VirtualDubMod 1.5.10.2 (build 2542/release)
Writing library                  : VirtualDubMod build 2542/release

Video
ID                               : 0
Format                           : MPEG-4 Visual
Format profile                   : Streaming Video@L1
Format settings, BVOP            : Yes
Format settings, QPel            : No
Format settings, GMC             : No warppoints
Format settings, Matrix          : Custom
Muxing mode                      : Packed bitstream
Codec ID                         : XVID
Codec ID/Hint                    : XviD
Duration                         : 1h 52mn
Bit rate                         : 2 307 Kbps
Width                            : 720 pixels
Height                           : 384 pixels
Display aspect ratio             : 1.875
Frame rate                       : 23.976 fps
Resolution                       : 24 bits
Colorimetry                      : 4:2:0
Scan type                        : Progressive
Bits/(Pixel*Frame)               : 0.348
Stream size                      : 1.81 GiB (83%)
Writing library                  : XviD 64

Audio
ID                               : 1
Format                           : AC-3
Format/Info                      : Audio Coding 3
Codec ID                         : 2000
Duration                         : 1h 52mn
Bit rate mode                    : Constant
Bit rate                         : 448 Kbps
Channel(s)                       : 6 channels
Channel positions                : Front: L C R, Surround: L R, LFE
Sampling rate                    : 48.0 KHz
Stream size                      : 360 MiB (16%)
Alignment                        : Split accross interleaves
Interleave, duration             : 42 ms (1.00 video frame)
Interleave, preload duration     : 500 ms

Релиз группы:
picpicpic
Для увеличения картинки щелкните мышкой по превью

Этот торрент недоступен для скачивания без регистрации, однако доступен по публичной magnet-ссылке (источники с публичных трекеров). Перед использованием ссылки прочтите, пожалуйста Пользовательское соглашение, а также как можно дольше оставайтесь на раздаче! Для того, чтобы скачать сам торрент-файл (который видит больше источников), а также для того, чтобы поблагодарить релизера, вам необходимо зарегистрироваться. Если регистрироваться лень - вы можете также попробовать скачать релиз по нашим партнерским ссылкам ниже.

[underverse.su].t18669.torrent
Трекер: Зарегистрирован   [ 08.07.2012 12:52 ]  

Статус: проверено (by HQ Underverse at 08.07.2012 12:53)
Поблагодарили: 1 человек
Тип торрента: публичный - доступные источники с открытых трекеров: 
Размер: 2,17 GB (занимает 1/2 DVDR, для записи нужно 1 болванка DVDR/RW)
 
 
Похожие темы
Форум Тема Автор Торрент Отв. Посл. сооб.
Зарубежное кино [DVDRip, Low-Res HDRip, и т.д.] Район №9 / District 9 (Нил Бломкамп) [2009 г., фантастика, боевик, триллер, драма, DVDRip] maddd
4 | 0

14 | 3040

184

15.11.2009 10:35

Зарубежное кино [DVD / HDDVD / BD / Remux] Район №9 / District 9 / 2009 / DVD9 (Нил Бломкамп) [2009 г., фантастика, боевик, триллер, драма, DVD-9] DDDXXX
0 | 0

5 | 1299

10

04.06.2012 17:28


Яндекс.Метрика powered by Sphinx


В Н И М А Н И Е
Сайт не распространяет и не хранит электронные версии произведений, а лишь бесплатно и без коммерческой выгоды (не требуя взамен платы,
SMS и т.д.) предоставляет доступ к создаваемому пользователями каталогу ссылок на торрент-файлы, которые содержат только списки хеш-сумм.
Убедительная просьба с жалобами обращаться напрямую к пользователю, разместившему торрент файл.

Вверх