Loading...
Error

Всё путем / Everything Must Go (Дэн Раш) [2010 г., драма, комедия, HDRip]

Статистика раздачи
Размер:  1,46 GB   |    Зарегистрирован:  4 года 5 месяцев   |    Скачан:  13 раз

Полного источника не было: 6 месяцев

Сидов:  0  |  0 KB/s  ]   Личеров:  0  |  0 KB/s  ]

* - сиды/пиры с внешних источников

   
 
Автор Сообщение

RG NewCinema 

07-Июл-2012 12:56

Всё путем / Everything Must Go


Год выпуска: 2010
Жанр: драма, комедия
Страна: США
Режиссер: Дэн Раш
В ролях: Уилл Феррелл, Ребекка Холл, Майкл Пенья, Кристофер Джордан Уоллес, Розали Майклс, Стивен Рут, Лора Дерн, Гленн Хоуертон, Тодд Брайант
Сюжет фильма:
Это история потерявшего работу человека, выставленного из дома собственной женой. Вместе с лузером на лужайке оказывается и все его имущество, которое он пытается распродать за четыре дня.

  • Мировая премьера: 10 сентября 2010

/
Качество видео: HDRip

Продолжительность: 01:37:05

Формат: avi
Видео: XviD, 720x304, 1754 kbps
Аудио #1: русский, многоголосый закадровый [профессиональный, НТВ+], AC3 2.0, 192 kbps
Аудио #2: английский, оригинал, AC3 2.0, 192 kbps

Код:

General
Complete name                    : H:\Видео\dvdrips\Vsjo.putem.2010.P.HDRip.IRONCLUB.avi
Format                           : AVI
Format/Info                      : Audio Video Interleave
File size                        : 1.46 GiB
Duration                         : 1h 37mn
Overall bit rate                 : 2 153 Kbps
Writing application              : VirtualDubMod 1.5.10.2 (build 2540/release)
Writing library                  : VirtualDubMod build 2540/release

Video
ID                               : 0
Format                           : MPEG-4 Visual
Format profile                   : Streaming Video@L1
Format settings, BVOP            : Yes
Format settings, QPel            : No
Format settings, GMC             : No warppoints
Format settings, Matrix          : Custom
Codec ID                         : XVID
Codec ID/Hint                    : XviD
Duration                         : 1h 37mn
Bit rate                         : 1 754 Kbps
Width                            : 720 pixels
Height                           : 304 pixels
Display aspect ratio             : 2.35
Frame rate                       : 23.976 fps
Resolution                       : 24 bits
Colorimetry                      : 4:2:0
Scan type                        : Progressive
Bits/(Pixel*Frame)               : 0.334
Stream size                      : 1.19 GiB (81%)
Writing library                  : XviD 65

Audio #1
ID                               : 1
Format                           : AC-3
Format/Info                      : Audio Coding 3
Codec ID                         : 2000
Duration                         : 1h 37mn
Bit rate mode                    : Constant
Bit rate                         : 192 Kbps
Channel(s)                       : 2 channels
Channel positions                : L R
Sampling rate                    : 48.0 KHz
Stream size                      : 133 MiB (9%)
Alignment                        : Split accross interleaves
Interleave, duration             : 42 ms (1.00 video frame)
Interleave, preload duration     : 500 ms

Audio #2
ID                               : 2
Format                           : AC-3
Format/Info                      : Audio Coding 3
Codec ID                         : 2000
Duration                         : 1h 37mn
Bit rate mode                    : Constant
Bit rate                         : 192 Kbps
Channel(s)                       : 2 channels
Channel positions                : L R
Sampling rate                    : 48.0 KHz
Stream size                      : 133 MiB (9%)
Alignment                        : Split accross interleaves
Interleave, duration             : 42 ms (1.00 video frame)
Interleave, preload duration     : 500 ms

Семпл: http://multi-up.com/729338
picpicpic
Для увеличения картинки щелкните мышкой по превью

Этот торрент недоступен для скачивания без регистрации, однако доступен по публичной magnet-ссылке (источники с публичных трекеров). Перед использованием ссылки прочтите, пожалуйста Пользовательское соглашение, а также как можно дольше оставайтесь на раздаче! Для того, чтобы скачать сам торрент-файл (который видит больше источников), а также для того, чтобы поблагодарить релизера, вам необходимо зарегистрироваться. Если регистрироваться лень - вы можете также попробовать скачать релиз по нашим партнерским ссылкам ниже.

[underverse.su].t18660.torrent
Трекер: Зарегистрирован   [ 07.07.2012 12:56 ]  

Статус: проверено (by garry at 07.07.2012 14:40)
Поблагодарили: пока никто не поблагодарил...
Тип торрента: публичный - доступные источники с открытых трекеров: 
Размер: 1,46 GB (занимает 0,33 DVDR, для записи нужно 1 болванка DVDR/RW)
 
 
Похожие темы
Форум Тема Автор Торрент Отв. Посл. сооб.
Зарубежное кино [DVDRip, Low-Res HDRip, и т.д.] Всё путём / Everybody's Fine (Кирк Джонс / Kirk Jones) [2009 г., драма, BDRip] Dub garry
9 | 1

0 | 1569

17

03.12.2013 23:49

Зарубежное кино [DVDRip, Low-Res HDRip, и т.д.] Всё путём / Everybody's Fine (Кирк Джонс / Kirk Jones) [2009 г., драма, BDRip] Dub + Original + Sub (Rus) 90ytr90
1 | 0

0 | 1427

5

06.01.2014 20:23

Зарубежное кино [DVD / HDDVD / BD / Remux] Всё путем / Everything Must Go (Дэн Раш / Dan Rush) [2010, драма, комедия, BDRemux] Greshnik
0 | 0

2 | 1181

9

09.10.2012 11:36


Яндекс.Метрика powered by Sphinx


В Н И М А Н И Е
Сайт не распространяет и не хранит электронные версии произведений, а лишь бесплатно и без коммерческой выгоды (не требуя взамен платы,
SMS и т.д.) предоставляет доступ к создаваемому пользователями каталогу ссылок на торрент-файлы, которые содержат только списки хеш-сумм.
Убедительная просьба с жалобами обращаться напрямую к пользователю, разместившему торрент файл.

Вверх