Loading...
Error

Записки Кейна: Жизнь узника / The Kane Files: Life of Trial (Бен Гурли) [2010 г., боевик, DVDRip]

Статистика раздачи
Размер:  1,37 GB   |    Зарегистрирован:  4 года 4 месяца   |    Скачан:  20 раз

Полного источника не было: 3 года 9 месяцев

Сидов:  0  |  0 KB/s  ]   Личеров:  0  |  0 KB/s  ]

* - сиды/пиры с внешних источников

   
 
Автор Сообщение

RG NewCinema 

07-Июл-2012 12:39

Записки Кейна: Жизнь узника / The Kane Files: Life of Trial


Год выпуска: 2010
Жанр: боевик
Страна: США
Режиссер: Бен Гурли
В ролях: Дрю Фуллер, Итэн Эмбри, Уильям Дивэйн, Уильям Этертон, Уитни Эйбл, Ив Мауро, Пол Рэй, Триша Адамс, Скотт Кларк Беринжер, Берни Даймонд
Сюжет фильма:
Скотт Кейн, человек с темным прошлым, старается начать вести правильную жизнь. Но когда его сын серьезно заболевает, Кейн не находит другого выхода, как обратиться к местной шишке криминального мира, на которого он когда-то работал. И с этого момента его жизнь становится еще более опасной, чем раньше.

  • Мировая премьера: 2 октября 2010

/
Качество видео: DVDRip

Продолжительность: 01:31:06

Формат: avi
Видео: XviD, 720x400, 1947 kbps
Аудио: русский, многоголосый закадровый [профессиональный, НТВ+], AC3 2.0, 192 kbps

Код:

General
Complete name                    : H:\Видео\dvdrips\Zapiski.Kejna.Zhizn.uznika.2010.P.DVDRip.avi
Format                           : AVI
Format/Info                      : Audio Video Interleave
File size                        : 1.37 GiB
Duration                         : 1h 31mn
Overall bit rate                 : 2 149 Kbps
Writing application              : VirtualDubMod 1.5.10.2 (build 2540/release)
Writing library                  : VirtualDubMod build 2540/release

Video
ID                               : 0
Format                           : MPEG-4 Visual
Format profile                   : Streaming Video@L1
Format settings, BVOP            : Yes
Format settings, QPel            : No
Format settings, GMC             : No warppoints
Format settings, Matrix          : Custom
Codec ID                         : XVID
Codec ID/Hint                    : XviD
Duration                         : 1h 31mn
Bit rate                         : 1 947 Kbps
Width                            : 720 pixels
Height                           : 400 pixels
Display aspect ratio             : 16/9
Frame rate                       : 23.976 fps
Resolution                       : 24 bits
Colorimetry                      : 4:2:0
Scan type                        : Progressive
Bits/(Pixel*Frame)               : 0.282
Stream size                      : 1.24 GiB (91%)
Writing library                  : XviD 1.2.1 (UTC 2008-12-04)

Audio
ID                               : 1
Format                           : AC-3
Format/Info                      : Audio Coding 3
Codec ID                         : 2000
Duration                         : 1h 31mn
Bit rate mode                    : Constant
Bit rate                         : 192 Kbps
Channel(s)                       : 2 channels
Channel positions                : L R
Sampling rate                    : 48.0 KHz
Stream size                      : 125 MiB (9%)
Alignment                        : Split accross interleaves
Interleave, duration             : 42 ms (1.00 video frame)
Interleave, preload duration     : 500 ms

Семпл: http://multi-up.com/729141
picpicpic
Для увеличения картинки щелкните мышкой по превью

Этот торрент недоступен для скачивания без регистрации, однако доступен по публичной magnet-ссылке (источники с публичных трекеров). Перед использованием ссылки прочтите, пожалуйста Пользовательское соглашение, а также как можно дольше оставайтесь на раздаче! Для того, чтобы скачать сам торрент-файл (который видит больше источников), а также для того, чтобы поблагодарить релизера, вам необходимо зарегистрироваться. Если регистрироваться лень - вы можете также попробовать скачать релиз по нашим партнерским ссылкам ниже.

[underverse.su].t18659.torrent
Трекер: Зарегистрирован   [ 07.07.2012 12:39 ]  

Статус: проверено (by garry at 07.07.2012 14:47)
Поблагодарили: 1 человек
Тип торрента: публичный - доступные источники с открытых трекеров: 
Размер: 1,37 GB (занимает 0,31 DVDR, для записи нужно 1 болванка DVDR/RW)
 
 

Яндекс.Метрика powered by Sphinx


В Н И М А Н И Е
Сайт не распространяет и не хранит электронные версии произведений, а лишь бесплатно и без коммерческой выгоды (не требуя взамен платы,
SMS и т.д.) предоставляет доступ к создаваемому пользователями каталогу ссылок на торрент-файлы, которые содержат только списки хеш-сумм.
Убедительная просьба с жалобами обращаться напрямую к пользователю, разместившему торрент файл.

Вверх