Loading...
Error

Два зайца / Два кролика / 2 Coelhos (Афонсо Поярт) [2012 г., боевик, драма, HDRip]

Статистика раздачи
Размер:  1,37 GB   |    Зарегистрирован:  4 года 4 месяца   |    Скачан:  24 раза

Полного источника не было: 3 года 1 месяц

Сидов:  0  |  0 KB/s  ]   Личеров:  0  |  0 KB/s  ]

* - сиды/пиры с внешних источников

   
 
Автор Сообщение

RG NewCinema 

07-Июл-2012 12:16

Два зайца / 2 Coelhos


Год выпуска: 2012
Жанр: боевик, драма
Страна: Бразилия
Режиссер: Афонсо Поярт
В ролях: Фернанду Алвис Пинту, Каку Сиоклер, Марат Дескартеш, Роберто Марчезе, Алессандра Негрини, Робсон Нюнс и др
Сюжет фильма:
Что, если в стране произвол? Что, если он убил людей и остался безнаказанным? Что, если он чертовски умен и решает поиграть в супергероя и параллельно сорвать куш? Что, если все спланировано до мельчайших деталей? Но...

В этом бразильском боевике есть все, чтобы заинтересовать зрителей, увлечь и не отпускать их до самого конца. Убийства, взрывы, красивые женщины, сильные мужчины, чувственная эротика, ошеломляющие спецэффекты, … и, конечно же, Любовь, способная преодолеть все преграды.

  • Мировая премьера: 20 января 2012

/
Качество видео: HDRip

Продолжительность: 01:41:25

Формат: avi
Видео: XviD, 720x400, 1534 kbps
Аудио: русский, многоголосый закадровый [любительский, ViruseProject], AC3 5.1, 384 kbps

Код:

General
Complete name                    : H:\Видео\dvdrips\2.Zayca.2012.L.HDRip.avi
Format                           : AVI
Format/Info                      : Audio Video Interleave
File size                        : 1.37 GiB
Duration                         : 1h 41mn
Overall bit rate                 : 1 928 Kbps
Writing application              : VirtualDubMod 1.5.10.2 (build 2540/release)
Writing library                  : VirtualDubMod build 2540/release

Video
ID                               : 0
Format                           : MPEG-4 Visual
Format profile                   : Streaming Video@L1
Format settings, BVOP            : Yes
Format settings, QPel            : No
Format settings, GMC             : No warppoints
Format settings, Matrix          : Default (H.263)
Muxing mode                      : Packed bitstream
Codec ID                         : XVID
Codec ID/Hint                    : XviD
Duration                         : 1h 41mn
Bit rate                         : 1 534 Kbps
Width                            : 720 pixels
Height                           : 400 pixels
Display aspect ratio             : 16/9
Frame rate                       : 23.976 fps
Resolution                       : 24 bits
Colorimetry                      : 4:2:0
Scan type                        : Progressive
Bits/(Pixel*Frame)               : 0.222
Stream size                      : 1.09 GiB (80%)
Writing library                  : XviD 64

Audio
ID                               : 1
Format                           : AC-3
Format/Info                      : Audio Coding 3
Codec ID                         : 2000
Duration                         : 1h 41mn
Bit rate mode                    : Constant
Bit rate                         : 384 Kbps
Channel(s)                       : 6 channels
Channel positions                : Front: L C R, Surround: L R, LFE
Sampling rate                    : 48.0 KHz
Stream size                      : 279 MiB (20%)
Alignment                        : Split accross interleaves
Interleave, duration             : 42 ms (1.00 video frame)
Interleave, preload duration     : 500 ms

Семпл: http://multi-up.com/729099
picpicpic
Для увеличения картинки щелкните мышкой по превью

Этот торрент недоступен для скачивания без регистрации, однако доступен по публичной magnet-ссылке (источники с публичных трекеров). Перед использованием ссылки прочтите, пожалуйста Пользовательское соглашение, а также как можно дольше оставайтесь на раздаче! Для того, чтобы скачать сам торрент-файл (который видит больше источников), а также для того, чтобы поблагодарить релизера, вам необходимо зарегистрироваться. Если регистрироваться лень - вы можете также попробовать скачать релиз по нашим партнерским ссылкам ниже.

[underverse.su].t18658.torrent
Трекер: Зарегистрирован   [ 07.07.2012 12:16 ]  

Статус: проверено (by garry at 07.07.2012 14:47)
Поблагодарили: пока никто не поблагодарил...
Тип торрента: публичный - доступные источники с открытых трекеров: 
Размер: 1,37 GB (занимает 0,31 DVDR, для записи нужно 1 болванка DVDR/RW)
 
 

Яндекс.Метрика powered by Sphinx


В Н И М А Н И Е
Сайт не распространяет и не хранит электронные версии произведений, а лишь бесплатно и без коммерческой выгоды (не требуя взамен платы,
SMS и т.д.) предоставляет доступ к создаваемому пользователями каталогу ссылок на торрент-файлы, которые содержат только списки хеш-сумм.
Убедительная просьба с жалобами обращаться напрямую к пользователю, разместившему торрент файл.

Вверх