Loading...
Error

Наступление ночи / Nightfall (Сянь-Ян Чоу) [2012 г., боевик, триллер, криминал, HDRip]

Статистика раздачи
Размер:  1,31 GB   |    Зарегистрирован:  4 года 4 месяца   |    Скачан:  8 раз

Полного источника не было: 3 года 11 месяцев

Сидов:  0  |  0 KB/s  ]   Личеров:  0  |  0 KB/s  ]

* - сиды/пиры с внешних источников

   
 
Автор Сообщение

RG NewCinema 

07-Июл-2012 11:50

Наступление ночи / Nightfall


Год выпуска: 2012
Жанр: боевик, триллер, криминал
Страна: Гонконг
Режиссер: Сянь-Ян Чоу
В ролях: Ник Чунг, Саймон Ям, Дженис Мэн, Кэй Тсе, Шоун Доу, Майкл Вонг
Сюжет фильма:
20 лет назад было совершенно страшное преступление: молодая девушка была изнасилована и жестоко убита в собственном доме. Убийца пойман на месте преступления и пожизненно отправлен в тюрьму. Но спустя 20 лет был освобождён досрочно. Сразу после его выхода не менее жестоко был убит отец девушки - известный музыкант. Стареющий и спивающийся инспектор Лам считает, что между двумя убийствами существует взаимосвязь.

  • Мировая премьера: 15 марта 2012

/
Качество видео: HDRip

Продолжительность: 01:47:28

Формат: avi
Видео: XviD, 688x288, 1356 kbps
Аудио: русский, одноголосый закадровый [любительский, zamez], AC3 5.1, 384 kbps

Код:

General
Complete name                    : H:\Видео\dvdrips\Nightfall.2012.BDRip.Rus.avi
Format                           : AVI
Format/Info                      : Audio Video Interleave
File size                        : 1.31 GiB
Duration                         : 1h 47mn
Overall bit rate                 : 1 751 Kbps
Writing application              : VirtualDubMod 1.5.10.2 (build 2540/release)
Writing library                  : VirtualDubMod build 2540/release

Video
ID                               : 0
Format                           : MPEG-4 Visual
Format profile                   : Streaming Video@L1
Format settings, BVOP            : Yes
Format settings, QPel            : No
Format settings, GMC             : No warppoints
Format settings, Matrix          : Default (MPEG)
Muxing mode                      : Packed bitstream
Codec ID                         : XVID
Codec ID/Hint                    : XviD
Duration                         : 1h 47mn
Bit rate                         : 1 357 Kbps
Width                            : 688 pixels
Height                           : 288 pixels
Display aspect ratio             : 2.35
Frame rate                       : 25.000 fps
Resolution                       : 24 bits
Colorimetry                      : 4:2:0
Scan type                        : Progressive
Bits/(Pixel*Frame)               : 0.274
Stream size                      : 1.02 GiB (78%)
Writing library                  : XviD 1.2.0.dev47 (UTC 2006-11-01)

Audio
ID                               : 1
Format                           : AC-3
Format/Info                      : Audio Coding 3
Codec ID                         : 2000
Duration                         : 1h 47mn
Bit rate mode                    : Constant
Bit rate                         : 384 Kbps
Channel(s)                       : 6 channels
Channel positions                : Front: L C R, Surround: L R, LFE
Sampling rate                    : 48.0 KHz
Stream size                      : 295 MiB (22%)
Alignment                        : Split accross interleaves
Interleave, duration             : 40 ms (1.00 video frame)
Interleave, preload duration     : 500 ms

Семпл: http://multi-up.com/729056
picpicpic
Для увеличения картинки щелкните мышкой по превью

Этот торрент недоступен для скачивания без регистрации, однако доступен по публичной magnet-ссылке (источники с публичных трекеров). Перед использованием ссылки прочтите, пожалуйста Пользовательское соглашение, а также как можно дольше оставайтесь на раздаче! Для того, чтобы скачать сам торрент-файл (который видит больше источников), а также для того, чтобы поблагодарить релизера, вам необходимо зарегистрироваться. Если регистрироваться лень - вы можете также попробовать скачать релиз по нашим партнерским ссылкам ниже.

[underverse.su].t18656.torrent
Трекер: Зарегистрирован   [ 07.07.2012 11:50 ]  

Статус: проверено (by garry at 07.07.2012 14:42)
Поблагодарили: пока никто не поблагодарил...
Тип торрента: публичный - доступные источники с открытых трекеров: 
Размер: 1,31 GB (занимает 0,3 DVDR, для записи нужно 1 болванка DVDR/RW)
 
 

Яндекс.Метрика powered by Sphinx


В Н И М А Н И Е
Сайт не распространяет и не хранит электронные версии произведений, а лишь бесплатно и без коммерческой выгоды (не требуя взамен платы,
SMS и т.д.) предоставляет доступ к создаваемому пользователями каталогу ссылок на торрент-файлы, которые содержат только списки хеш-сумм.
Убедительная просьба с жалобами обращаться напрямую к пользователю, разместившему торрент файл.

Вверх