Loading...
Error

«Весёлые» каникулы / Get the Gringo (Адриан Грюнберг) [2012 г., боевик, комедия, HDRip] (Rus, Ukr, Eng) HQ Underverse

Статистика раздачи
Размер:  2,17 GB   |    Зарегистрирован:  4 года 5 месяцев   |    Скачан:  35 раз

Полного источника не было: 25 дней

Сидов:  0  |  0 KB/s  ]   Личеров:  0  |  0 KB/s  ]

* - сиды/пиры с внешних источников

   
 
Автор Сообщение

HQ Underverse 

06-Июл-2012 20:28

«Весёлые» каникулы / Get the Gringo


Год выпуска: 2012
Жанр: боевик, комедия
Страна: США
Режиссер: Адриан Грюнберг
В ролях: Мэл Гибсон, Кевин Эрнандез, Долорес Эредия, Хесус Очоа, Петер Стормаре, Дин Норрис, Боб Гантон, Скотт Коэн, София Сиснига, Патрик Бошо
Сюжет фильма:
Лента расскажет о пойманном мексиканскими властями преступнике, заключенном в полную наркотиков и насилия тюрьму.

  • Мировая премьера: 15 марта 2012
  • Российская премьера: 22 марта 2012, West

|
Качество видео: HDRip

Продолжительность: 01:35:59

Формат: avi
Видео: XviD, 720x304, 2321 kbps
Аудио #1: русский, дублированный [лицензия], AC3 5.1, 448 kbps
Аудио #2: английский, оригинал, AC3 5.1, 448 kbps
Аудио #3: украинский, дублированный [лицензия], AC3 5.1, 384 kbps (отдельным файлом: здесь)
Субтитры #1: внешние, SRT, английский (на narod.ru)
Субтитры #2: внешние, SRT, русский (на narod.ru)

Код:

General
Complete name                    : \\Servak\d\Видео\HQ\Веселые каникулы\Get.The.Gringo.2012.HDRip.XviD.AC3.Rus.D.Eng.O.HQ.Underverse.avi
Format                           : AVI
Format/Info                      : Audio Video Interleave
Format profile                   : OpenDML
File size                        : 2.17 GiB
Duration                         : 1h 35mn
Overall bit rate                 : 3 236 Kbps
Writing application              : VirtualDubMod 1.5.10.2 (build 2542/release)
Writing library                  : VirtualDubMod build 2542/release

Video
ID                               : 0
Format                           : MPEG-4 Visual
Format profile                   : Streaming Video@L1
Format settings, BVOP            : Yes
Format settings, QPel            : No
Format settings, GMC             : No warppoints
Format settings, Matrix          : Custom
Muxing mode                      : Packed bitstream
Codec ID                         : XVID
Codec ID/Hint                    : XviD
Duration                         : 1h 35mn
Bit rate                         : 2 322 Kbps
Width                            : 720 pixels
Height                           : 304 pixels
Display aspect ratio             : 2.35
Frame rate                       : 23.976 fps
Resolution                       : 24 bits
Colorimetry                      : 4:2:0
Scan type                        : Progressive
Bits/(Pixel*Frame)               : 0.442
Stream size                      : 1.56 GiB (72%)
Writing library                  : XviD 64

Audio #1
ID                               : 1
Format                           : AC-3
Format/Info                      : Audio Coding 3
Codec ID                         : 2000
Duration                         : 1h 35mn
Bit rate mode                    : Constant
Bit rate                         : 448 Kbps
Channel(s)                       : 6 channels
Channel positions                : Front: L C R, Surround: L R, LFE
Sampling rate                    : 48.0 KHz
Stream size                      : 308 MiB (14%)
Alignment                        : Split accross interleaves
Interleave, duration             : 42 ms (1.00 video frame)
Interleave, preload duration     : 500 ms

Audio #2
ID                               : 2
Format                           : AC-3
Format/Info                      : Audio Coding 3
Codec ID                         : 2000
Duration                         : 1h 35mn
Bit rate mode                    : Constant
Bit rate                         : 448 Kbps
Channel(s)                       : 6 channels
Channel positions                : Front: L C R, Surround: L R, LFE
Sampling rate                    : 48.0 KHz
Stream size                      : 308 MiB (14%)
Alignment                        : Split accross interleaves
Interleave, duration             : 42 ms (1.00 video frame)
Interleave, preload duration     : 500 ms

Релиз группы:
picpicpic
Для увеличения картинки щелкните мышкой по превью

Этот торрент недоступен для скачивания без регистрации, однако доступен по публичной magnet-ссылке (источники с публичных трекеров). Перед использованием ссылки прочтите, пожалуйста Пользовательское соглашение, а также как можно дольше оставайтесь на раздаче! Для того, чтобы скачать сам торрент-файл (который видит больше источников), а также для того, чтобы поблагодарить релизера, вам необходимо зарегистрироваться. Если регистрироваться лень - вы можете также попробовать скачать релиз по нашим партнерским ссылкам ниже.

[underverse.su].t18652.torrent
Трекер: Зарегистрирован   [ 06.07.2012 20:28 ]  

Статус: проверено (by garry at 06.07.2012 20:29)
Поблагодарили: 3 человека
Тип торрента: публичный - доступные источники с открытых трекеров: 
Размер: 2,17 GB (занимает 1/2 DVDR, для записи нужно 1 болванка DVDR/RW)
 
 
Похожие темы
Форум Тема Автор Торрент Отв. Посл. сооб.
Зарубежное кино [DVDRip, Low-Res HDRip, и т.д.] «Весёлые» каникулы / Get the Gringo (Адриан Грюнберг) [2012, боевик, триллер, драма, криминал, HDRip] AVO (Карповский) Garnett
9 | 0

0 | 1113

6

18.12.2012 15:21

Зарубежное кино [DVDRip, Low-Res HDRip, и т.д.] «Весёлые» каникулы / Get the Gringo (Адриан Грюнберг / Adrian Grunberg) [2012 г., боевик, комедия, BDRip] Dub 90ytr90
12 | 0

0 | 188

5

09.02.2015 11:31

Зарубежное кино [DVDRip, Low-Res HDRip, и т.д.] «Весёлые» каникулы / Get the Gringo (Адриан Грюнберг / Adrian Grunberg) [2012 г., боевик, комедия, BDRip] AVO (Карповский) 90ytr90
15 | 0

0 | 172

4

09.02.2015 15:51

Зарубежное кино [DVDRip, Low-Res HDRip, и т.д.] «Весёлые» каникулы / Get the Gringo (Адриан Грюнберг / Adrian Grunberg) [2012 г., боевик, комедия, BDRip-AVC] Dub + Original (Eng) + Sub (Rus, Eng) 90ytr90
22 | 1

0 | 174

5

09.02.2015 16:03

Зарубежное кино [HDDVDRip / BDRip / WEB-DL / HDTV 1080/720р] «Весёлые» каникулы / Get the Gringo (Адриан Грюнберг / Adrian Grunberg) [2012 г., боевик, комедия, BDRip 720p] Dub + Subs 90ytr90
4 | 0

0 | 194

3

09.02.2015 16:10


Яндекс.Метрика powered by Sphinx


В Н И М А Н И Е
Сайт не распространяет и не хранит электронные версии произведений, а лишь бесплатно и без коммерческой выгоды (не требуя взамен платы,
SMS и т.д.) предоставляет доступ к создаваемому пользователями каталогу ссылок на торрент-файлы, которые содержат только списки хеш-сумм.
Убедительная просьба с жалобами обращаться напрямую к пользователю, разместившему торрент файл.

Вверх