Loading...
Error

Женщина в черном / The Woman in Black (Джеймс Уоткинс) [2012 г., ужасы, триллер, драма, HDRip] (Rus, Eng) HQ Underverse

Статистика раздачи
Размер:  1,45 GB   |    Зарегистрирован:  4 года 4 месяца   |    Скачан:  23 раза

Полного источника не было: 20 дней

Сидов:  0  |  0 KB/s  ]   Личеров:  0  |  0 KB/s  ]

* - сиды/пиры с внешних источников

   
 
Автор Сообщение

HQ Underverse 

06-Июл-2012 12:39

Женщина в черном / The Woman in Black


Год выпуска: 2012
Жанр: ужасы, триллер, драма
Страна: Швеция , Канада , Великобритания
Режиссер: Джеймс Уоткинс
В ролях: Дэниэл Рэдклифф, Кирен Хайдз, Джанет МакТир, Дэвид Бурк, Шон Дули, Эмма Шори, Молли Хэрмон, Софи Стаки, Миша Хэндли
Сюжет фильма:
На дворе — конец девятнадцатого века, но, хотя люди пользуются автомобилями, железными дорогами, и телеграфом, человек по-прежнему бессилен перед проявлениями сверхъестественного. Молодой лондонский юрист Артур Киппс вынужден оставить своего трехлетнего сына и отправиться в командировку в уединенную северную деревушку, чтобы составить реестр документов, оставшихся от скончавшегося хозяина поместья Ил Марш. Добравшись до места, и пообщавшись с негостеприимными местными жителями, он начинает понимать, что над деревушкой нависла тень мрачной тайны. Когда же рядом со старым кладбищем ему на глаза попадается загадочная женщина, одетая в черное, это малозначительное происшествие знаменует начало череды леденящих кровь смертей в семьях обитателей деревни.

  • Мировая премьера: 3 февраля 2012
  • Российская премьера: 15 марта 2012, WDSSPR

|
Качество видео: HDRip

Продолжительность: 01:35:19

Формат: avi
Видео: XviD, 720x304, 1718 kbps
Аудио #1: русский, дублированный [лицензия], AC3 5.1, 448 kbps
Аудио #2: английский, оригинал, AC3 5.1, 448 kbps (отдельным файлом: здесь)
Субтитры #1: внешние, SRT, английский (на narod.ru)
Субтитры #2: внешние, SRT, русский (на narod.ru)

Код:

General
Complete name                    : \\Servak\d\Видео\HQ\Женщина в черном\Woman.In.Black.2012.HDRip.XviD.AC3.Rus.D.HQ.Underverse.avi
Format                           : AVI
Format/Info                      : Audio Video Interleave
File size                        : 1.45 GiB
Duration                         : 1h 35mn
Overall bit rate                 : 2 176 Kbps
Writing application              : VirtualDubMod 1.5.10.2 (build 2542/release)
Writing library                  : VirtualDubMod build 2542/release

Video
ID                               : 0
Format                           : MPEG-4 Visual
Format profile                   : Streaming Video@L1
Format settings, BVOP            : Yes
Format settings, QPel            : No
Format settings, GMC             : No warppoints
Format settings, Matrix          : Custom
Muxing mode                      : Packed bitstream
Codec ID                         : XVID
Codec ID/Hint                    : XviD
Duration                         : 1h 35mn
Bit rate                         : 1 719 Kbps
Width                            : 720 pixels
Height                           : 304 pixels
Display aspect ratio             : 2.35
Frame rate                       : 23.976 fps
Resolution                       : 24 bits
Colorimetry                      : 4:2:0
Scan type                        : Progressive
Bits/(Pixel*Frame)               : 0.328
Stream size                      : 1.14 GiB (79%)
Writing library                  : XviD 64

Audio
ID                               : 1
Format                           : AC-3
Format/Info                      : Audio Coding 3
Codec ID                         : 2000
Duration                         : 1h 35mn
Bit rate mode                    : Constant
Bit rate                         : 448 Kbps
Channel(s)                       : 6 channels
Channel positions                : Front: L C R, Surround: L R, LFE
Sampling rate                    : 48.0 KHz
Stream size                      : 305 MiB (21%)
Alignment                        : Split accross interleaves
Interleave, duration             : 42 ms (1.00 video frame)
Interleave, preload duration     : 500 ms

Релиз группы:
picpicpic
Для увеличения картинки щелкните мышкой по превью

Этот торрент недоступен для скачивания без регистрации, однако доступен по публичной magnet-ссылке (источники с публичных трекеров). Перед использованием ссылки прочтите, пожалуйста Пользовательское соглашение, а также как можно дольше оставайтесь на раздаче! Для того, чтобы скачать сам торрент-файл (который видит больше источников), а также для того, чтобы поблагодарить релизера, вам необходимо зарегистрироваться. Если регистрироваться лень - вы можете также попробовать скачать релиз по нашим партнерским ссылкам ниже.

[underverse.su].t18647.torrent
Трекер: Зарегистрирован   [ 06.07.2012 12:39 ]  

Статус: проверено (by HQ Underverse at 06.07.2012 12:43)
Поблагодарили: пока никто не поблагодарил...
Тип торрента: публичный - доступные источники с открытых трекеров: 
Размер: 1,45 GB (занимает 1/3 DVDR, для записи нужно 1 болванка DVDR/RW)
 
 
Похожие темы
Форум Тема Автор Торрент Отв. Посл. сооб.
Зарубежное кино [DVDRip, Low-Res HDRip, и т.д.] Женщина в черном / The Woman in Black (Джеймс Уоткинс) [2012 г., ужасы, триллер, драма, HDRip] garry
1 | 0

2 | 769

52

31.03.2015 16:01

Зарубежное кино [DVDRip, Low-Res HDRip, и т.д.] Женщина в черном / The Woman in Black (Джеймс Уоткинс) [2012 г., ужасы, триллер, драма, HDRip] WeaSel
0 | 0

0 | 572

2

27.06.2012 17:40

Зарубежное кино [DVDRip, Low-Res HDRip, и т.д.] Женщина в красном / The Woman in Red (Джин Уайлдер) [1984 г., мелодрама, комедия, HDTVRip-AVC] MVO + AVO + Original garry
12 | 0

0 | 601

6

16.11.2012 23:08

Зарубежное кино [DVDRip, Low-Res HDRip, и т.д.] Женщина в клетке / Мистериум. Начало (Миккель Нёргор) [2013 г., триллер, криминал, детектив, HDRip] MVO + Original (Dan) Grey
19 | 0

3 | 1589

36

10.03.2014 08:43

T Зарубежное кино [DVDRip, Low-Res HDRip, и т.д.] Женщина в черном 2: Ангел смерти / The Woman in Black 2: Angel of Death (Том Харпер / Tom Harper.) [2014 г., ужасы, триллер, драма, HDRip] Dub (чистый звук) 90ytr90
7 | 1

0 | 725

35

18.02.2015 18:12

T Зарубежное кино [DVDRip, Low-Res HDRip, и т.д.] Женщина в черном 2: Ангел смерти / The Woman in Black 2: Angel of Death (Том Харпер) [2014 г., ужасы, триллер, драма, HDRip] Dub [чистый звук] + Original Паукан
0 | 0

0 | 430

14

31.03.2015 13:49

Зарубежное кино [DVDRip, Low-Res HDRip, и т.д.] Женщина в золотом / Woman in Gold (Саймон Кертис) [2015 г., драма, HDRip] DVO makkol
6 | 0

0 | 388

16

11.07.2015 12:59

Зарубежное кино [DVDRip, Low-Res HDRip, и т.д.] Женщина в золотом / Woman in Gold (Саймон Кертис) [2015 г., драма, история, BDRip] MVO makkol
21 | 1

0 | 597

9

30.04.2016 21:58

Зарубежное кино [DVDRip, Low-Res HDRip, и т.д.] Женщина в золотом / Woman in Gold (Саймон Кертис / Simon Curtis) [2015 г., драма, история, BDRip-AVC] MVO (FocusStudio) + Original (Eng) + Sub (Rus, Eng) 90ytr90
23 | 0

0 | 537

3

04.05.2016 17:09

xUSSR сериалы Женщина в беде [04 серии из 04] (Андрей Щербинин) [2014 г., мелодрама, криминальный, SatRip] konopic
7 | 0

0 | 962

16

21.03.2014 09:46


Яндекс.Метрика powered by Sphinx


В Н И М А Н И Е
Сайт не распространяет и не хранит электронные версии произведений, а лишь бесплатно и без коммерческой выгоды (не требуя взамен платы,
SMS и т.д.) предоставляет доступ к создаваемому пользователями каталогу ссылок на торрент-файлы, которые содержат только списки хеш-сумм.
Убедительная просьба с жалобами обращаться напрямую к пользователю, разместившему торрент файл.

Вверх