Loading...
Error

Призрачная машина / Ghost Machine (Крис Хартвилл) [2010 г., ужасы, фантастика, триллер, HDRip]

Статистика раздачи
Размер:  1,46 GB   |    Зарегистрирован:  4 года 11 месяцев   |    Скачан:  37 раз

Полного источника не было: 4 месяца

Сидов:  0  |  0 KB/s  ]   Личеров:  0  |  0 KB/s  ]

* - сиды/пиры с внешних источников

   
 
Автор Сообщение

RG NewCinema 

05-Июл-2012 22:42

Призрачная машина / Ghost Machine


Год выпуска: 2010
Жанр: ужасы, фантастика, триллер
Страна: Великобритания
Режиссер: Крис Хартвилл
В ролях: Шон Фэрис, Рэйчел Тейлор, Люк Форд, Ричард Дормер, Джонатан Харден, Сэм Корри, Халла Вильялмсдоттир, Джоэнна Робинсон, Джошуа Даллас
Сюжет фильма:
Увлечение компьютерными играми привело группу юношей и девушек в бывшую тюрьму для военных. Это место имело плохую репутацию - поговаривали, что в застенках от страшных пыток погибло немало людей. Спустя несколько лет тюрьма превратилась в полигон для 3D игр-стрелялок. В один из боев, в момент перехода на новый уровень, в системе происходит сбой, и игра становится реальностью. Теперь главный враг юнитов - Призрак из прошлого...

  • Мировая премьера: 22 августа 2010

|
Качество видео: HDRip

Продолжительность: 01:32:12

Формат: avi
Видео: XviD, 720x304, 1807 kbps
Аудио: русский, многоголосый закадровый [профессиональный], AC3 5.1, 448 kbps

Код:

General
Complete name                    : H:\Видео\dvdrips\Prizrachnaya.mashina.2010.P.HDRip.avi
Format                           : AVI
Format/Info                      : Audio Video Interleave
File size                        : 1.46 GiB
Duration                         : 1h 32mn
Overall bit rate                 : 2 265 Kbps
Writing application              : VirtualDubMod 1.5.10.2 (build 2540/release)
Writing library                  : VirtualDubMod build 2540/release

Video
ID                               : 0
Format                           : MPEG-4 Visual
Format profile                   : Streaming Video@L1
Format settings, BVOP            : Yes
Format settings, QPel            : No
Format settings, GMC             : No warppoints
Format settings, Matrix          : Default (H.263)
Codec ID                         : XVID
Codec ID/Hint                    : XviD
Duration                         : 1h 32mn
Bit rate                         : 1 808 Kbps
Width                            : 720 pixels
Height                           : 304 pixels
Display aspect ratio             : 2.35
Frame rate                       : 23.976 fps
Resolution                       : 24 bits
Colorimetry                      : 4:2:0
Scan type                        : Progressive
Bits/(Pixel*Frame)               : 0.344
Stream size                      : 1.16 GiB (80%)
Writing library                  : XviD 1.2.1 (UTC 2008-12-04)

Audio
ID                               : 1
Format                           : AC-3
Format/Info                      : Audio Coding 3
Codec ID                         : 2000
Duration                         : 1h 32mn
Bit rate mode                    : Constant
Bit rate                         : 448 Kbps
Channel(s)                       : 6 channels
Channel positions                : Front: L C R, Surround: L R, LFE
Sampling rate                    : 48.0 KHz
Stream size                      : 295 MiB (20%)
Alignment                        : Split accross interleaves
Interleave, duration             : 42 ms (1.00 video frame)
Interleave, preload duration     : 500 ms

Семпл: http://multi-up.com/728867
picpicpic
Для увеличения картинки щелкните мышкой по превью

Этот торрент недоступен для скачивания без регистрации, однако доступен по публичной magnet-ссылке (источники с публичных трекеров). Перед использованием ссылки прочтите, пожалуйста Пользовательское соглашение, а также как можно дольше оставайтесь на раздаче! Для того, чтобы скачать сам торрент-файл (который видит больше источников), а также для того, чтобы поблагодарить релизера, вам необходимо зарегистрироваться. Если регистрироваться лень - вы можете также попробовать скачать релиз по нашим партнерским ссылкам ниже.

[underverse.su].t18643.torrent
Трекер: Зарегистрирован   [ 05.07.2012 22:42 ]  

Статус: проверено (by WeaSel at 06.07.2012 04:38)
Поблагодарили: 1 человек
Тип торрента: публичный - доступные источники с открытых трекеров: 
Размер: 1,46 GB (занимает 1/3 DVDR, для записи нужно 1 болванка DVDR/RW)
 
 
Похожие темы
Форум Тема Автор Торрент Отв. Посл. сооб.
Зарубежное кино [DVDRip, Low-Res HDRip, и т.д.] Призрачная красота / Collateral Beauty (Дэвид Фрэнкел / David Frankel) [2016 г., драма, BDRip] Dub + Sub (Rus) 90ytr90
1844 | 40

0 | 314

11

30.03.2017 06:40

T Зарубежное кино [DVDRip, Low-Res HDRip, и т.д.] Призрачная команда / Ghost Team (Оливер Ирвинг) [2016 г., комедия, WEB-DLRip] MVO (Синема УС) makkol
2 | 0

0 | 537

11

22.02.2017 12:44

Зарубежное кино [DVDRip, Low-Res HDRip, и т.д.] Призрачная красота / Collateral Beauty (Дэвид Фрэнкел / David Frankel) [2016 г., драма, BDRip-AVC] Dub + Sub (Rus) 90ytr90
55 | 3

0 | 231

2

30.03.2017 06:48

Зарубежное кино [DVDRip, Low-Res HDRip, и т.д.] Призрачная красота / Collateral Beauty (Дэвид Фрэнкел / David Frankel) [2016 г., драма, BDRip-AVC] Dub + Original (Eng) + Sub (Rus, Eng) 90ytr90
3 | 3

0 | 252

3

30.03.2017 06:50

Зарубежное кино [DVDRip, Low-Res HDRip, и т.д.] Призрачная красота / Collateral Beauty (Дэвид Фрэнкел / David Frankel) [2016 г., драма, HDRip] Dub + Sub (Rus) 90ytr90
15 | 5

0 | 310

2

01.04.2017 07:57

T Зарубежное кино [HDDVDRip / BDRip / WEB-DL / HDTV 1080/720р] Призрачная команда / Ghost Team (Оливер Ирвинг) [2016 г., комедия, WEB-DL 720p] MVO (Синема УС) makkol
38 | 1

0 | 513

5

22.02.2017 12:50

Зарубежное кино [HDDVDRip / BDRip / WEB-DL / HDTV 1080/720р] Призрачная красота / Collateral Beauty (Дэвид Фрэнкел / David Frankel) [2016 г., драма, BDRip 720p] Dub + Original (Eng) + Sub (Rus, Eng) 90ytr90
17 | 3

0 | 255

3

30.03.2017 06:42

Зарубежное кино [HDDVDRip / BDRip / WEB-DL / HDTV 1080/720р] Призрачная красота / Collateral Beauty (Дэвид Фрэнкел / David Frankel) [2016 г., драма, BDRip 1080p] Dub + Original (Eng) + Sub (Rus, Eng) 90ytr90
23 | 3

0 | 282

5

30.03.2017 06:44

Зарубежное кино [HDDVDRip / BDRip / WEB-DL / HDTV 1080/720р] Призрачная красота / Collateral Beauty (Дэвид Фрэнкел / David Frankel) [2016 г., драма, BDRip 720p] Dub + Sub (Rus) 90ytr90
70 | 6

0 | 300

3

01.04.2017 07:49

Зарубежное кино [HDDVDRip / BDRip / WEB-DL / HDTV 1080/720р] Призрачная красота / Collateral Beauty (Дэвид Фрэнкел / David Frankel) [2016 г., драма, BDRip 720p] Dub + Original (Eng) + Sub (Rus, Eng) 90ytr90
231 | 7

0 | 296

4

01.04.2017 09:20


Яндекс.Метрика powered by Sphinx


В Н И М А Н И Е
Сайт не распространяет и не хранит электронные версии произведений, а лишь бесплатно и без коммерческой выгоды (не требуя взамен платы,
SMS и т.д.) предоставляет доступ к создаваемому пользователями каталогу ссылок на торрент-файлы, которые содержат только списки хеш-сумм.
Убедительная просьба с жалобами обращаться напрямую к пользователю, разместившему торрент файл.

Вверх