Loading...
Error

Из-под земли / Mandrake (Трип Рид) [2010 г., ужасы, фэнтези, приключения, HDRip]

Статистика раздачи
Размер:  1,46 GB   |    Зарегистрирован:  4 года 5 месяцев   |    Скачан:  16 раз

Полного источника не было: 1 год 7 месяцев

Сидов:  0  |  0 KB/s  ]   Личеров:  0  |  0 KB/s  ]

* - сиды/пиры с внешних источников

   
 
Автор Сообщение

RG NewCinema 

05-Июл-2012 16:38

Из-под земли / Mandrake


Год выпуска: 2010
Жанр: ужасы, фэнтези, приключения
Страна: США
Режиссер: Трип Рид
В ролях: Макс Мартини, Бетси Расселл, Бенито Мартинес, Джон Макк, Николас Шон Гомез, Вейн Пер, Фредди Джо Фарнсворт, Дж. ЛаРоуз, Ванета Уолмсли
Сюжет фильма:
Охотник за сокровищами Дарен МакКолл собирает археологическую экспедицию в джунгли, на поиски легендарного артефакта — драгоценного кинжала, захороненного на кладбище древних. Вторгшись на священную землю, чужаки пробуждают кровожадное существо, тысячелетиями дремавшее в ее недрах. Монстр начинает беспощадную охоту на людей…

  • Мировая премьера: 11 сентября 2010

/
Качество видео: HDRip

Продолжительность: 01:29:08

Формат: avi
Видео: XviD, 720x400, 1949 kbps
Аудио #1: русский, многоголосый закадровый [профессиональный], AC3 2.0, 192 kbps
Аудио #2: английский, оригинал, AC3 2.0, 192 kbps

Код:

General
Complete name                    : H:\Видео\dvdrips\Iz.pod.zemli.2010.P.HDRip.avi
Format                           : AVI
Format/Info                      : Audio Video Interleave
File size                        : 1.46 GiB
Duration                         : 1h 29mn
Overall bit rate                 : 2 348 Kbps
Writing application              : VirtualDubMod 1.5.10.2 (build 2540/release)
Writing library                  : VirtualDubMod build 2540/release

Video
ID                               : 0
Format                           : MPEG-4 Visual
Format profile                   : Streaming Video@L1
Format settings, BVOP            : Yes
Format settings, QPel            : No
Format settings, GMC             : No warppoints
Format settings, Matrix          : Default (H.263)
Codec ID                         : XVID
Codec ID/Hint                    : XviD
Duration                         : 1h 29mn
Bit rate                         : 1 950 Kbps
Width                            : 720 pixels
Height                           : 400 pixels
Display aspect ratio             : 16/9
Frame rate                       : 23.976 fps
Resolution                       : 24 bits
Colorimetry                      : 4:2:0
Scan type                        : Progressive
Bits/(Pixel*Frame)               : 0.282
Stream size                      : 1.21 GiB (83%)
Writing library                  : XviD 1.2.1 (UTC 2008-12-04)

Audio #1
ID                               : 1
Format                           : AC-3
Format/Info                      : Audio Coding 3
Codec ID                         : 2000
Duration                         : 1h 29mn
Bit rate mode                    : Constant
Bit rate                         : 192 Kbps
Channel(s)                       : 2 channels
Channel positions                : L R
Sampling rate                    : 48.0 KHz
Stream size                      : 122 MiB (8%)
Alignment                        : Split accross interleaves
Interleave, duration             : 42 ms (1.00 video frame)
Interleave, preload duration     : 500 ms

Audio #2
ID                               : 2
Format                           : AC-3
Format/Info                      : Audio Coding 3
Codec ID                         : 2000
Duration                         : 1h 29mn
Bit rate mode                    : Constant
Bit rate                         : 192 Kbps
Channel(s)                       : 2 channels
Channel positions                : L R
Sampling rate                    : 48.0 KHz
Stream size                      : 122 MiB (8%)
Alignment                        : Split accross interleaves
Interleave, duration             : 42 ms (1.00 video frame)
Interleave, preload duration     : 500 ms

Семпл: http://multi-up.com/728577
picpicpic
Для увеличения картинки щелкните мышкой по превью

Этот торрент недоступен для скачивания без регистрации, однако доступен по публичной magnet-ссылке (источники с публичных трекеров). Перед использованием ссылки прочтите, пожалуйста Пользовательское соглашение, а также как можно дольше оставайтесь на раздаче! Для того, чтобы скачать сам торрент-файл (который видит больше источников), а также для того, чтобы поблагодарить релизера, вам необходимо зарегистрироваться. Если регистрироваться лень - вы можете также попробовать скачать релиз по нашим партнерским ссылкам ниже.

[underverse.su].t18640.torrent
Трекер: Зарегистрирован   [ 05.07.2012 16:38 ]  

Статус: проверено (by Паукан at 05.07.2012 19:18)
Поблагодарили: 2 человека
Тип торрента: публичный - доступные источники с открытых трекеров: 
Размер: 1,46 GB (занимает 0,33 DVDR, для записи нужно 1 болванка DVDR/RW)
 
 

Яндекс.Метрика powered by Sphinx


В Н И М А Н И Е
Сайт не распространяет и не хранит электронные версии произведений, а лишь бесплатно и без коммерческой выгоды (не требуя взамен платы,
SMS и т.д.) предоставляет доступ к создаваемому пользователями каталогу ссылок на торрент-файлы, которые содержат только списки хеш-сумм.
Убедительная просьба с жалобами обращаться напрямую к пользователю, разместившему торрент файл.

Вверх