Loading...
Error

Чистокровный / Blooded (Эдвард Боуз) [2011 г., ужасы, триллер, HDRip]

Статистика раздачи
Размер:  1,37 GB   |    Зарегистрирован:  4 года 5 месяцев   |    Скачан:  11 раз

Полного источника не было: 2 года 10 месяцев

Сидов:  0  |  0 KB/s  ]   Личеров:  0  |  0 KB/s  ]

* - сиды/пиры с внешних источников

   
 
Автор Сообщение

RG NewCinema 

05-Июл-2012 14:46

Чистокровный / Blooded


Год выпуска: 2011
Жанр: ужасы, триллер
Страна: Великобритания
Режиссер: Эдвард Боуз
В ролях: Ник Эшдон, Нил МакДермотт, Оливер Бут, Марк Декстер, Шарон Дункан-Брюстер, Джозеф Клоска, Адам Бест, Джей Тейлор, Сисели Теннант
Сюжет фильма:
Действия фильма происходят в 2005 году в горах Шотландии. Пятеро незнакомых друг другу молодых людей были похищены незнакомцами, все пятеро похищенных приходят в себя на незнакомой им местности, они раздеты догола и совершенно не помнят, как оказались тут. Вскоре они понимают, что принимают участие в смертельной игре на выживание в качестве живых мишеней...

  • Мировая премьера: 1 апреля 2011

/
Качество видео: HDRip

Продолжительность: 01:19:40

Формат: avi
Видео: XviD, 720x400, 2002 kbps
Аудио #1: русский, двухголосый закадровый [любительский], AC3 2.0, 192 kbps
Аудио #2: немецкий, дублированный, AC3 5.1, 256 kbps

Код:

General
Complete name                    : H:\Видео\dvdrips\Чистокровный.2011.HDRip.avi
Format                           : AVI
Format/Info                      : Audio Video Interleave
File size                        : 1.37 GiB
Duration                         : 1h 19mn
Overall bit rate                 : 2 464 Kbps
Writing application              : VirtualDubMod 1.5.10.3 | www.virtualdub-fr.org || (build 2550/release)
Writing library                  : VirtualDubMod build 2550/release

Video
ID                               : 0
Format                           : MPEG-4 Visual
Format profile                   : Streaming Video@L1
Format settings, BVOP            : Yes
Format settings, QPel            : No
Format settings, GMC             : No warppoints
Format settings, Matrix          : Default (MPEG)
Codec ID                         : XVID
Codec ID/Hint                    : XviD
Duration                         : 1h 19mn
Bit rate                         : 2 002 Kbps
Width                            : 720 pixels
Height                           : 400 pixels
Display aspect ratio             : 16/9
Frame rate                       : 24.000 fps
Resolution                       : 24 bits
Colorimetry                      : 4:2:0
Scan type                        : Progressive
Bits/(Pixel*Frame)               : 0.290
Stream size                      : 1.11 GiB (81%)
Writing library                  : XviD 1.2.1 (UTC 2008-12-04)

Audio #1
ID                               : 1
Format                           : AC-3
Format/Info                      : Audio Coding 3
Codec ID                         : 2000
Duration                         : 1h 19mn
Bit rate mode                    : Constant
Bit rate                         : 192 Kbps
Channel(s)                       : 2 channels
Channel positions                : L R
Sampling rate                    : 48.0 KHz
Video delay                      : 12ms
Stream size                      : 109 MiB (8%)
Alignment                        : Split accross interleaves
Interleave, duration             : 42 ms (1.00 video frame)
Interleave, preload duration     : 500 ms

Audio #2
ID                               : 2
Format                           : AC-3
Format/Info                      : Audio Coding 3
Codec ID                         : 2000
Duration                         : 1h 19mn
Bit rate mode                    : Constant
Bit rate                         : 256 Kbps
Channel(s)                       : 6 channels
Channel positions                : Front: L C R, Surround: L R, LFE
Sampling rate                    : 48.0 KHz
Stream size                      : 146 MiB (10%)
Alignment                        : Split accross interleaves
Interleave, duration             : 42 ms (1.00 video frame)
Interleave, preload duration     : 500 ms

Семпл: http://multi-up.com/728471
picpicpic
Для увеличения картинки щелкните мышкой по превью

Этот торрент недоступен для скачивания без регистрации, однако доступен по публичной magnet-ссылке (источники с публичных трекеров). Перед использованием ссылки прочтите, пожалуйста Пользовательское соглашение, а также как можно дольше оставайтесь на раздаче! Для того, чтобы скачать сам торрент-файл (который видит больше источников), а также для того, чтобы поблагодарить релизера, вам необходимо зарегистрироваться. Если регистрироваться лень - вы можете также попробовать скачать релиз по нашим партнерским ссылкам ниже.

[underverse.su].t18637.torrent
Трекер: Зарегистрирован   [ 05.07.2012 14:46 ]  

Статус: проверено (by WeaSel at 05.07.2012 15:30)
Поблагодарили: пока никто не поблагодарил...
Тип торрента: публичный - доступные источники с открытых трекеров: 
Размер: 1,37 GB (занимает 0,31 DVDR, для записи нужно 1 болванка DVDR/RW)
 
 

prapor777 Пол:Муж

08-Июл-2012 13:14

:bad: тихая муть

Яндекс.Метрика powered by Sphinx


В Н И М А Н И Е
Сайт не распространяет и не хранит электронные версии произведений, а лишь бесплатно и без коммерческой выгоды (не требуя взамен платы,
SMS и т.д.) предоставляет доступ к создаваемому пользователями каталогу ссылок на торрент-файлы, которые содержат только списки хеш-сумм.
Убедительная просьба с жалобами обращаться напрямую к пользователю, разместившему торрент файл.

Вверх