Loading...
Error

Вдребезги (Роман Каримов) [2011 г., комедия, HDRip-AVC]

Статистика раздачи
Размер:  1,46 GB   |    Зарегистрирован:  4 года 5 месяцев   |    Скачан:  20 раз

Полного источника не было: 5 месяцев 22 дня

Сидов:  0  |  0 KB/s  ]   Личеров:  0  |  0 KB/s  ]

* - сиды/пиры с внешних источников

   
 
Автор Сообщение

eXtatik Пол:Муж

05-Июл-2012 09:19

Вдребезги


Год выпуска: 2011
Жанр: комедия
Страна: Россия
Режиссер: Роман Каримов
В ролях: Никита Дювбанов, Артем Ткаченко, Равшана Куркова, Иван Николаев, Александр Плющев, Александр Дульщиков, Кристина Казурова, Евгения Абрамова, Павел Дикан, Тимур Крючков
Сюжет фильма:
Что делать с людьми, которые нам так мешают в нашей жизни? Может их убить? А можем ли мы убить? А кто может убить?

Две девушки-маньячки сбивают велосипедиста, убивают педофила, угоняют машину у гламурного подонка

Известный ди-джей ведет скандальное шоу, где прикалывается над слушателями. После очередного эфира ди-джея похищают

Жена, мечтающая порвать с мужем, приглашает на день рождения босса-любовника. Пока она ходила за сигаретами, в доме происходит убийство Пути героев этих историй, составляющих абсурдно-жестокую черную комедию, пересекаются на загородном шоссе, когда судьба сама расставляет все точки над Ё

  • Российская премьера: 6 октября 2011, Парадиз

Качество видео: HDRip-AVC

Продолжительность: 01:32:55

Формат: mkv
Видео: x264, 1024x436, 1757 kbps
Аудио: русский, оригинал, AC3 5.1, 448 kbps

Код:

General
Complete name                    : Vdrebezgi.2011.O.HDTVRip.x264.potroks.mkv
Format                           : Matroska
File size                        : 1.46 GiB
Duration                         : 1h 32mn
Overall bit rate                 : 2 250 Kbps
Movie name                       : -=POTROKS=-
Encoded date                     : UTC 2012-07-04 12:59:05
Writing application              : mkvmerge v5.6.0 ('Kenya Kane') built on May 27 2012 16:44:04
Writing library                  : libebml v1.2.3 + libmatroska v1.3.0

Video
ID                               : 1
Format                           : AVC
Format/Info                      : Advanced Video Codec
Format profile                   : High@L4.1
Format settings, CABAC           : No
Format settings, ReFrames        : 11 frames
Muxing mode                      : Container profile=Unknown@4.1
Codec ID                         : V_MPEG4/ISO/AVC
Duration                         : 1h 32mn
Bit rate                         : 1 757 Kbps
Nominal bit rate                 : 1 802 Kbps
Width                            : 1 024 pixels
Height                           : 436 pixels
Display aspect ratio             : 2.35
Frame rate mode                  : Variable
Frame rate                       : 24.000 fps
Resolution                       : 24 bits
Colorimetry                      : 4:2:0
Scan type                        : Progressive
Bits/(Pixel*Frame)               : 0.164
Stream size                      : 1.14 GiB (78%)
Title                            : Vdrebezgi.2011.O.HDTVRip.x264.potroks
Writing library                  : x264 core 116 r2019M 9cc407d
Encoding settings                : cabac=0 / ref=12 / deblock=1:-3:-3 / analyse=0x3:0x133 / me=umh / subme=9 / psy=1 / psy_rd=1.00:0.00 / mixed_ref=1 / me_range=56 / chroma_me=1 / trellis=1 / 8x8dct=1 / cqm=0 / deadzone=21,13 / fast_pskip=0 / chroma_qp_offset=-2 / threads=8 / sliced_threads=0 / nr=0 / decimate=1 / interlaced=0 / bluray_compat=0 / constrained_intra=0 / bframes=8 / b_pyramid=1 / b_adapt=2 / b_bias=0 / direct=3 / weightb=1 / open_gop=0 / weightp=2 / keyint=240 / keyint_min=24 / scenecut=40 / intra_refresh=0 / rc_lookahead=100 / rc=2pass / mbtree=1 / bitrate=1802 / ratetol=1.0 / qcomp=0.60 / qpmin=10 / qpmax=51 / qpstep=4 / cplxblur=20.0 / qblur=0.5 / ip_ratio=1.37 / aq=1:1.20
Language                         : Russian

Audio
ID                               : 2
Format                           : AC-3
Format/Info                      : Audio Coding 3
Codec ID                         : A_AC3
Duration                         : 1h 32mn
Bit rate mode                    : Constant
Bit rate                         : 448 Kbps
Channel(s)                       : 6 channels
Channel positions                : Front: L C R, Surround: L R, LFE
Sampling rate                    : 48.0 KHz
Stream size                      : 298 MiB (20%)
Title                            : AC3, 5.1 ch., 448 kbps
Language                         : Russian

Text
ID                               : 3
Format                           : UTF-8
Codec ID                         : S_TEXT/UTF8
Codec ID/Info                    : UTF-8 Plain Text

Семпл: http://multi-up.com/728180
picpicpicpic
Для увеличения картинки щелкните мышкой по превью

Этот торрент недоступен для скачивания без регистрации, однако доступен по публичной magnet-ссылке (источники с публичных трекеров). Перед использованием ссылки прочтите, пожалуйста Пользовательское соглашение, а также как можно дольше оставайтесь на раздаче! Для того, чтобы скачать сам торрент-файл (который видит больше источников), а также для того, чтобы поблагодарить релизера, вам необходимо зарегистрироваться. Если регистрироваться лень - вы можете также попробовать скачать релиз по нашим партнерским ссылкам ниже.

[underverse.su].t18634.torrent
Трекер: Зарегистрирован   [ 05.07.2012 09:19 ]  

Статус: проверено (by WeaSel at 05.07.2012 10:08)
Поблагодарили: 3 человека
Тип торрента: публичный - доступные источники с открытых трекеров: 
Размер: 1,46 GB (занимает 0,33 DVDR, для записи нужно 1 болванка DVDR/RW)
 
 

Паукан Пол:Муж

05-Июл-2012 10:29

Для AVC релизов дописывай пожалуйста в качестве "AVC".
Недаром же в визарде есть такие пункты.

lvladimir198Пол:Муж

26-Июл-2012 14:22

Фильм - бред.

Яндекс.Метрика powered by Sphinx


В Н И М А Н И Е
Сайт не распространяет и не хранит электронные версии произведений, а лишь бесплатно и без коммерческой выгоды (не требуя взамен платы,
SMS и т.д.) предоставляет доступ к создаваемому пользователями каталогу ссылок на торрент-файлы, которые содержат только списки хеш-сумм.
Убедительная просьба с жалобами обращаться напрямую к пользователю, разместившему торрент файл.

Вверх