Loading...
Error

Шепчущий во тьме / The Whisperer in Darkness (Шон Брэнни) [2011 г., ужасы, фантастика, детектив, DVDRip]

Статистика раздачи
Размер:  1,46 GB   |    Зарегистрирован:  4 года 5 месяцев   |    Скачан:  7 раз

Полного источника не было: 4 года 2 месяца

Сидов:  0  |  0 KB/s  ]   Личеров:  0  |  0 KB/s  ]

* - сиды/пиры с внешних источников

   
 
Автор Сообщение

RG NewCinema 

04-Июл-2012 17:28

Шепчущий во тьме / The Whisperer in Darkness


Год выпуска: 2011
Жанр: ужасы, фантастика, детектив
Страна: США
Режиссер: Шон Брэнни
В ролях: Бэрри Линч, Стефен Блекхарт, Энни Абрамс, Мэтт Лаган, Джо Софранко, Эндрю Лиман, Кэйси Крамер, Мэтт Фойер, Зак Голд, Отем Вендел
Сюжет фильма:
Фантастическая повесть Говарда Лавкрафта «Шепчущий во тьме» (англ. The Whisperer in Darkness) представляет собой переписку двух ученых, один из которых, Генри Экли, ушел из науки и жил в фамильном доме в Вермонте недалеко от Черной горы. Второй ученый, Альберт Уилмарт, был преподавателем литературы Мискатонинского университета и занимался фольклором.

  • Мировая премьера: 12 марта 2011

/
Качество видео: DVDRip

Продолжительность: 01:43:21

Формат: avi
Видео: XviD, 720x384, 1567 kbps
Аудио: русский, одноголосый закадровый [любительский], AC3 2.0, 448 kbps

Код:

General
Complete name                    : H:\Видео\dvdrips\Shepciush4ij.vo.tme.2011.L1.DVDRip.avi
Format                           : AVI
Format/Info                      : Audio Video Interleave
File size                        : 1.46 GiB
Duration                         : 1h 43mn
Overall bit rate                 : 2 025 Kbps
Writing application              : VirtualDubMod 1.5.10.2 (build 2540/release)
Writing library                  : VirtualDubMod build 2540/release

Video
ID                               : 0
Format                           : MPEG-4 Visual
Format profile                   : Streaming Video@L1
Format settings, BVOP            : Yes
Format settings, QPel            : No
Format settings, GMC             : No warppoints
Format settings, Matrix          : Default (MPEG)
Muxing mode                      : Packed bitstream
Codec ID                         : XVID
Codec ID/Hint                    : XviD
Duration                         : 1h 43mn
Bit rate                         : 1 567 Kbps
Width                            : 720 pixels
Height                           : 384 pixels
Display aspect ratio             : 1.875
Frame rate                       : 23.976 fps
Resolution                       : 24 bits
Colorimetry                      : 4:2:0
Scan type                        : Progressive
Bits/(Pixel*Frame)               : 0.236
Stream size                      : 1.13 GiB (77%)
Writing library                  : XviD 1.2.0.dev47 (UTC 2006-11-01)

Audio
ID                               : 1
Format                           : AC-3
Format/Info                      : Audio Coding 3
Codec ID                         : 2000
Duration                         : 1h 43mn
Bit rate mode                    : Constant
Bit rate                         : 448 Kbps
Channel(s)                       : 2 channels
Channel positions                : L R
Sampling rate                    : 48.0 KHz
Stream size                      : 331 MiB (22%)
Alignment                        : Split accross interleaves
Interleave, duration             : 42 ms (1.00 video frame)
Interleave, preload duration     : 500 ms

Семпл: http://multi-up.com/675464
picpicpic
Для увеличения картинки щелкните мышкой по превью

Этот торрент недоступен для скачивания без регистрации, однако доступен по публичной magnet-ссылке (источники с публичных трекеров). Перед использованием ссылки прочтите, пожалуйста Пользовательское соглашение, а также как можно дольше оставайтесь на раздаче! Для того, чтобы скачать сам торрент-файл (который видит больше источников), а также для того, чтобы поблагодарить релизера, вам необходимо зарегистрироваться. Если регистрироваться лень - вы можете также попробовать скачать релиз по нашим партнерским ссылкам ниже.

[underverse.su].t18628.torrent
Трекер: Зарегистрирован   [ 04.07.2012 17:28 ]  

Статус: проверено (by WeaSel at 05.07.2012 10:16)
Поблагодарили: пока никто не поблагодарил...
Тип торрента: публичный - доступные источники с открытых трекеров: 
Размер: 1,46 GB (занимает 0,33 DVDR, для записи нужно 1 болванка DVDR/RW)
 
 
Похожие темы
Форум Тема Автор Торрент Отв. Посл. сооб.
Зарубежное кино [DVDRip, Low-Res HDRip, и т.д.] Шепчущий во тьме / The Whisperer in Darkness (Шон Брэнни) [2011, ужасы, фантастика, детектив, HDRip] VO [Агент Смит] Garnett
0 | 1

0 | 353

6

26.12.2012 12:26

Зарубежное кино [DVDRip, Low-Res HDRip, и т.д.] Шепчущий во тьме / The Whisperer in Darkness (Шон Брэнни) [2011, ужасы, фантастика, детектив, HDRip] VO [Агент Смит] + Original Eng Sub (rus, eng) Garnett
18 | 0

0 | 501

11

26.12.2012 16:55


Яндекс.Метрика powered by Sphinx


В Н И М А Н И Е
Сайт не распространяет и не хранит электронные версии произведений, а лишь бесплатно и без коммерческой выгоды (не требуя взамен платы,
SMS и т.д.) предоставляет доступ к создаваемому пользователями каталогу ссылок на торрент-файлы, которые содержат только списки хеш-сумм.
Убедительная просьба с жалобами обращаться напрямую к пользователю, разместившему торрент файл.

Вверх