Loading...
Error

Рыбаки / The Watermen (Мэтт Л. Локхарт) [2011 г., ужасы, триллер, DVDRip]

Статистика раздачи
Размер:  737 MB   |    Зарегистрирован:  4 года 5 месяцев   |    Скачан:  12 раз

Полного источника не было: 2 года 2 месяца

Сидов:  0  |  0 KB/s  ]   Личеров:  0  |  0 KB/s  ]

* - сиды/пиры с внешних источников

   
 
Автор Сообщение

RG NewCinema 

04-Июл-2012 15:20

Рыбаки / The Watermen


Год выпуска: 2011
Жанр: ужасы, триллер
Страна: США
Режиссер: Мэтт Л. Локхарт
В ролях: Джейсон Мьюз, Ричард Риле, Флойд Абель, Блэйкли Баннелл, Джой Гласс, Люк Гилден, Тара Хестон, Тайлер Джонсон, Мэтт Л. Локхарт
Сюжет фильма:
Компания золотой молодежи отправляется на яхте порыбачить. Но в результате аварии, отказывает электричество на корабле и они попадают в плен к рыбакам-староверам, которые почти не общаются с внешним миром и по слухам, имеют даже перепонки между пальцев. Ребята оказываются в ловушке на маленьком острове. Смогут ли они сбежать с острова?

  • Мировая премьера: 25 декабря 2011

/
Качество видео: DVDRip

Продолжительность: 01:34:07

Формат: avi
Видео: XviD, 624x304, 893 kbps
Аудио: русский, одноголосый закадровый [любительский, den904], MP3 2.0, 192 kbps

Код:

General
Complete name                    : H:\Видео\dvdrips\The.Watermen.2011.Xixidok.avi
Format                           : AVI
Format/Info                      : Audio Video Interleave
File size                        : 737 MiB
Duration                         : 1h 34mn
Overall bit rate                 : 1 095 Kbps
Writing application              : VirtualDubMod 1.5.10.3 (build 2550/release)
Writing library                  : VirtualDubMod build 2550/release

Video
ID                               : 0
Format                           : MPEG-4 Visual
Format profile                   : Streaming Video@L1
Format settings, BVOP            : Yes
Format settings, QPel            : No
Format settings, GMC             : No warppoints
Format settings, Matrix          : Default (H.263)
Codec ID                         : XVID
Codec ID/Hint                    : XviD
Duration                         : 1h 34mn
Bit rate                         : 893 Kbps
Width                            : 624 pixels
Height                           : 304 pixels
Display aspect ratio             : 2.053
Frame rate                       : 23.976 fps
Original frame rate              : 25.000 fps
Resolution                       : 24 bits
Colorimetry                      : 4:2:0
Scan type                        : Progressive
Bits/(Pixel*Frame)               : 0.196
Stream size                      : 601 MiB (82%)
Writing library                  : XviD 1.2.1 (UTC 2008-12-04)

Audio
ID                               : 1
Format                           : MPEG Audio
Format version                   : Version 1
Format profile                   : Layer 3
Codec ID                         : 55
Codec ID/Hint                    : MP3
Duration                         : 1h 34mn
Bit rate mode                    : Constant
Bit rate                         : 192 Kbps
Channel(s)                       : 2 channels
Sampling rate                    : 44.1 KHz
Resolution                       : 16 bits
Video delay                      : 22ms
Stream size                      : 129 MiB (18%)
Alignment                        : Split accross interleaves
Interleave, duration             : 42 ms (1.00 video frame)
Interleave, preload duration     : 500 ms

Семпл: http://multi-up.com/727914
picpicpic
Для увеличения картинки щелкните мышкой по превью

Этот торрент недоступен для скачивания без регистрации, однако доступен по публичной magnet-ссылке (источники с публичных трекеров). Перед использованием ссылки прочтите, пожалуйста Пользовательское соглашение, а также как можно дольше оставайтесь на раздаче! Для того, чтобы скачать сам торрент-файл (который видит больше источников), а также для того, чтобы поблагодарить релизера, вам необходимо зарегистрироваться. Если регистрироваться лень - вы можете также попробовать скачать релиз по нашим партнерским ссылкам ниже.

[underverse.su].t18616.torrent
Трекер: Зарегистрирован   [ 04.07.2012 15:20 ]  

Статус: проверено (by WeaSel at 05.07.2012 10:15)
Поблагодарили: пока никто не поблагодарил...
Тип торрента: публичный - доступные источники с открытых трекеров: 
Размер: 737 MB (занимает 0,16 DVDR, для записи нужно 1 болванка DVDR/RW)
 
 

Яндекс.Метрика powered by Sphinx


В Н И М А Н И Е
Сайт не распространяет и не хранит электронные версии произведений, а лишь бесплатно и без коммерческой выгоды (не требуя взамен платы,
SMS и т.д.) предоставляет доступ к создаваемому пользователями каталогу ссылок на торрент-файлы, которые содержат только списки хеш-сумм.
Убедительная просьба с жалобами обращаться напрямую к пользователю, разместившему торрент файл.

Вверх