Loading...
Error

Маленький убийца / Little Murder (Предраг Антониевич) [2011 г., триллер, драма, HDRip]

Статистика раздачи
Размер:  1,46 GB   |    Зарегистрирован:  4 года 5 месяцев   |    Скачан:  5 раз

Полного источника не было: 4 года 1 месяц

Сидов:  0  |  0 KB/s  ]   Личеров:  0  |  0 KB/s  ]

* - сиды/пиры с внешних источников

   
 
Автор Сообщение

RG NewCinema 

04-Июл-2012 12:49

Маленький убийца / Little Murder


Год выпуска: 2011
Жанр: триллер, драма
Страна: США
Режиссер: Предраг Антониевич
В ролях: Джош Лукас, Терренс Ховард, Лэйк Белл, Дебора Энн Уолл, Букем Вудбайн, Ной Бин, Кэри Элвис, Джой Томаска, Патриция Эллисон, Рейла Афродит
Сюжет фильма:
Фильм рассказывает о дискредитированном полицейском детективе, который получает шанс оправдаться. Ему является призрак прекрасной виолончелистки и требует помочь найти ее убийцу.

  • Мировая премьера: 8 января 2011

|
Качество видео: HDRip

Продолжительность: 01:37:51

Формат: avi
Видео: XviD, 720x304, 1731 kbps
Аудио #1: русский, многоголосый закадровый [профессиональный], AC3 2.0, 192 kbps
Аудио #2: английский, оригинал, AC3 5.1, 192 kbps

Код:

General
Complete name                    : H:\Видео\dvdrips\Little.Murder.2011.P.HDRip.avi
Format                           : AVI
Format/Info                      : Audio Video Interleave
File size                        : 1.46 GiB
Duration                         : 1h 37mn
Overall bit rate                 : 2 130 Kbps
Writing application              : VirtualDubMod 1.5.10.3 | www.virtualdub-fr.org || (build 2550/release)
Writing library                  : VirtualDubMod build 2550/release

Video
ID                               : 0
Format                           : MPEG-4 Visual
Format profile                   : Streaming Video@L1
Format settings, BVOP            : Yes
Format settings, QPel            : No
Format settings, GMC             : No warppoints
Format settings, Matrix          : Default (MPEG)
Codec ID                         : XVID
Codec ID/Hint                    : XviD
Duration                         : 1h 37mn
Bit rate                         : 1 732 Kbps
Width                            : 720 pixels
Height                           : 304 pixels
Display aspect ratio             : 2.35
Frame rate                       : 23.976 fps
Resolution                       : 24 bits
Colorimetry                      : 4:2:0
Scan type                        : Progressive
Bits/(Pixel*Frame)               : 0.330
Stream size                      : 1.18 GiB (81%)
Writing library                  : XviD 1.2.1 (UTC 2008-12-04)

Audio #1
ID                               : 1
Format                           : AC-3
Format/Info                      : Audio Coding 3
Codec ID                         : 2000
Duration                         : 1h 37mn
Bit rate mode                    : Constant
Bit rate                         : 192 Kbps
Channel(s)                       : 2 channels
Channel positions                : L R
Sampling rate                    : 48.0 KHz
Video delay                      : 8s 500ms
Stream size                      : 134 MiB (9%)
Alignment                        : Split accross interleaves
Interleave, duration             : 42 ms (1.00 video frame)
Interleave, preload duration     : 500 ms

Audio #2
ID                               : 2
Format                           : AC-3
Format/Info                      : Audio Coding 3
Codec ID                         : 2000
Duration                         : 1h 37mn
Bit rate mode                    : Constant
Bit rate                         : 192 Kbps
Channel(s)                       : 6 channels
Channel positions                : Front: L C R, Surround: L R, LFE
Sampling rate                    : 48.0 KHz
Stream size                      : 134 MiB (9%)
Alignment                        : Split accross interleaves
Interleave, duration             : 42 ms (1.00 video frame)
Interleave, preload duration     : 500 ms

Семпл: http://multi-up.com/727637
picpicpic
Для увеличения картинки щелкните мышкой по превью

Этот торрент недоступен для скачивания без регистрации, однако доступен по публичной magnet-ссылке (источники с публичных трекеров). Перед использованием ссылки прочтите, пожалуйста Пользовательское соглашение, а также как можно дольше оставайтесь на раздаче! Для того, чтобы скачать сам торрент-файл (который видит больше источников), а также для того, чтобы поблагодарить релизера, вам необходимо зарегистрироваться. Если регистрироваться лень - вы можете также попробовать скачать релиз по нашим партнерским ссылкам ниже.

[underverse.su].t18604.torrent
Трекер: Зарегистрирован   [ 04.07.2012 12:49 ]  

Статус: проверено (by WeaSel at 05.07.2012 10:15)
Поблагодарили: 1 человек
Тип торрента: публичный - доступные источники с открытых трекеров: 
Размер: 1,46 GB (занимает 1/3 DVDR, для записи нужно 1 болванка DVDR/RW)
 
 
Похожие темы
Форум Тема Автор Торрент Отв. Посл. сооб.
Зарубежное кино [DVDRip, Low-Res HDRip, и т.д.] Маленький большой солдат / Little Big Soldier (Тинг Шенг) [2010 г., исторический, боевые искусства, комедия, драма, DVDRip] GanibalKing
0 | 0

5 | 1858

22

30.03.2010 17:43

Зарубежное кино [DVDRip, Low-Res HDRip, и т.д.] Маленький помощник Санты / Santa's Little Helper (Джил Джангер) [2015 г., комедия, семейный, WEB-DLRip] Dub (SDI Media) makkol
1 | 0

0 | 327

4

18.08.2016 14:37

T Зарубежные мультфильмы Маленький принц / The Little Prince (Марк Осборн / Mark Osborne) [2015 г., мультфильм, фэнтези, BDRip] Dub (iTunes) 90ytr90
197 | 3

0 | 607

42

30.01.2016 18:10

T Зарубежные мультфильмы Маленький принц / The Little Prince (Марк Осборн / Mark Osborne) [2015 г., мультфильм, фэнтези, BDRip-AVC] Dub (iTunes) + Original (Eng) + Sub (Rus, Eng) 90ytr90
99 | 2

0 | 571

32

30.01.2016 18:17

Зарубежные мультфильмы Маленький принц / The Little Prince (Марк Осборн / Mark Osborne) [2015 г., мультфильм, фэнтези, HDRip] VO (NesTea) 90ytr90
22 | 0

0 | 642

31

30.01.2016 18:24

Мультсериалы Маленький принц / Le petit prince / The Little Prince [01-45 из 45] (Пьер-Ален Чартьер / Pierre-Alain Chartier ) [2011 г., мультсериал, приключения, фэнтези, SATRip] 90ytr90
0 | 0

0 | 2573

12

19.01.2013 16:50

Зарубежное кино [HDDVDRip / BDRip / WEB-DL / HDTV 1080/720р] Маленький большой человек / Little Big Man (Артур Пенн) [1970, Драма, приключения, вестерн, BDRip 720p] centoriuse
0 | 0

1 | 1238

3

07.10.2013 15:54

Зарубежное кино [HDDVDRip / BDRip / WEB-DL / HDTV 1080/720р] Маленький помощник Санты / Santa's Little Helper (Джил Джангер) [2015 г., комедия, семейный, WEB-DL 1080p] Dub (SDI Media) + Original makkol
0 | 0

0 | 298

2

18.08.2016 14:47

Архив Маленький Николя / Le petit Nicolas (Лоран Тирар ) [2010 г., комедия, семейный, DVD-9] SKRiptus
0 | 1

2 | 977

1

19.08.2011 08:22

Закрытые релизы Маленький принц / The Little Prince (Марк Осборн) [2015 г., мультфильм, фэнтези, приключения, семейный, HDRip] DVO makkol
42 | 1

1 | 535

74

28.12.2015 17:00

whitekey Пол:Муж

08-Июл-2012 03:44

Правильнее было бы перевести название фильма как "убийство Литл" с другой стороны без разницы название, сам фильм очень хороший события медленно но неуклонно развиваются достигая кульминации к концу фильма. Случайности это результат закономерности или можно сказать иначе, что случайности не случайны. Фильм про то что не стоит никогда опускать руки. В фильме отлично показано развитие двух паралельных тем связь которых стала возможной через главного героя. Вывод - фильм хороший, смотреть стоит. :)

Яндекс.Метрика powered by Sphinx


В Н И М А Н И Е
Сайт не распространяет и не хранит электронные версии произведений, а лишь бесплатно и без коммерческой выгоды (не требуя взамен платы,
SMS и т.д.) предоставляет доступ к создаваемому пользователями каталогу ссылок на торрент-файлы, которые содержат только списки хеш-сумм.
Убедительная просьба с жалобами обращаться напрямую к пользователю, разместившему торрент файл.

Вверх