Loading...
Error

Дикая семерка / Wairudo 7 / Wild 7 (Эйитиро Хасуми) [2011 г., боевик, DVDRip]

Статистика раздачи
Размер:  2,05 GB   |    Зарегистрирован:  4 года 5 месяцев   |    Скачан:  14 раз

Полного источника не было: 1 год 9 месяцев

Сидов:  0  |  0 KB/s  ]   Личеров:  0  |  0 KB/s  ]

* - сиды/пиры с внешних источников

   
 
Автор Сообщение

RG NewCinema 

04-Июл-2012 12:24

Дикая семерка / Wairudo 7 / Wild 7


Год выпуска: 2011
Жанр: боевик
Страна: Япония
Режиссер: Эйитиро Хасуми
В ролях: Эйта, Киппэй Сиина, Кёко Фукада, Киити Накаи, Джан Канаме, Цуёши Абе, Юика Мотокария, Минору Мацумото, Юсуке Хираяма
Сюжет фильма:
В фильме речь идет о секретном полицейском отряде, члены которого не брезгуют ничем, чтобы справедливость восторжествовала.

  • Мировая премьера: 21 декабря 2011

|
Качество видео: DVDRip

Продолжительность: 01:49:01

Формат: avi
Видео: XviD, 720x304, 2232 kbps
Аудио: русский, одноголосый закадровый [любительский, den904], AC3 5.1, 448 kbps

Код:

General
Complete name                    : H:\Видео\dvdrips\Dikaja.semerka.2011.XviD.DVDRip-Kolobok.avi
Format                           : AVI
Format/Info                      : Audio Video Interleave
Format profile                   : OpenDML
File size                        : 2.05 GiB
Duration                         : 1h 49mn
Overall bit rate                 : 2 693 Kbps
Movie name                       : Wild 7 (2011)
Director                         : Релиз группа "Колобок"
Writing application              : VirtualDubMod 1.5.10.2 (build 2540/release)
Writing library                  : VirtualDubMod build 2540/release
Copyright                        : ed_rez

Video
ID                               : 0
Format                           : MPEG-4 Visual
Format profile                   : Streaming Video@L1
Format settings, BVOP            : Yes
Format settings, QPel            : No
Format settings, GMC             : No warppoints
Format settings, Matrix          : Custom
Muxing mode                      : Packed bitstream
Codec ID                         : XVID
Codec ID/Hint                    : XviD
Duration                         : 1h 49mn
Bit rate                         : 2 233 Kbps
Width                            : 720 pixels
Height                           : 304 pixels
Display aspect ratio             : 2.35
Frame rate                       : 23.976 fps
Resolution                       : 24 bits
Colorimetry                      : 4:2:0
Scan type                        : Progressive
Bits/(Pixel*Frame)               : 0.425
Stream size                      : 1.70 GiB (83%)
Writing library                  : XviD 1.2.1 (UTC 2008-12-04)

Audio
ID                               : 1
Format                           : AC-3
Format/Info                      : Audio Coding 3
Codec ID                         : 2000
Duration                         : 1h 49mn
Bit rate mode                    : Constant
Bit rate                         : 448 Kbps
Channel(s)                       : 6 channels
Channel positions                : Front: L C R, Surround: L R, LFE
Sampling rate                    : 48.0 KHz
Stream size                      : 349 MiB (17%)
Alignment                        : Split accross interleaves
Interleave, duration             : 42 ms (1.00 video frame)
Interleave, preload duration     : 500 ms

Семпл: http://multi-up.com/726555
picpicpic
Для увеличения картинки щелкните мышкой по превью

Этот торрент недоступен для скачивания без регистрации, однако доступен по публичной magnet-ссылке (источники с публичных трекеров). Перед использованием ссылки прочтите, пожалуйста Пользовательское соглашение, а также как можно дольше оставайтесь на раздаче! Для того, чтобы скачать сам торрент-файл (который видит больше источников), а также для того, чтобы поблагодарить релизера, вам необходимо зарегистрироваться. Если регистрироваться лень - вы можете также попробовать скачать релиз по нашим партнерским ссылкам ниже.

[underverse.su].t18603.torrent
Трекер: Зарегистрирован   [ 04.07.2012 12:24 ]  

Статус: проверено (by WeaSel at 05.07.2012 10:14)
Поблагодарили: пока никто не поблагодарил...
Тип торрента: публичный - доступные источники с открытых трекеров: 
Размер: 2,05 GB (занимает 0,47 DVDR, для записи нужно 1 болванка DVDR/RW)
 
 

Яндекс.Метрика powered by Sphinx


В Н И М А Н И Е
Сайт не распространяет и не хранит электронные версии произведений, а лишь бесплатно и без коммерческой выгоды (не требуя взамен платы,
SMS и т.д.) предоставляет доступ к создаваемому пользователями каталогу ссылок на торрент-файлы, которые содержат только списки хеш-сумм.
Убедительная просьба с жалобами обращаться напрямую к пользователю, разместившему торрент файл.

Вверх