Loading...
Error

Любовь живет три года / L`amour dure trois ans (Фредерик Бегбедер) [2011 г., комедия, HDRip]

Статистика раздачи
Размер:  1,46 GB   |    Зарегистрирован:  4 года 5 месяцев   |    Скачан:  10 раз

Полного источника не было: 4 месяца 17 дней

Сидов:  0  |  0 KB/s  ]   Личеров:  0  |  0 KB/s  ]

* - сиды/пиры с внешних источников

   
 
Автор Сообщение

RG NewCinema 

04-Июл-2012 11:49

Любовь живет три года / L`amour dure trois ans


Год выпуска: 2011
Жанр: комедия
Страна: Франция
Режиссер: Фредерик Бегбедер
В ролях: Гаспар Пруст, Луиз Бургуан, Джои Старр, Джонатан Ламберт, Фредерик Бель, Николас Бедос, Элиза Сенауи, Бернар Менез, Анни Дюпре, Тома Жуанне
Сюжет фильма:
Главный - герой журналист Марк Марронье, пишущий светскую хронику. Он уверен, что любовь живёт три года: сначала люди страстно любят друг друга, потом нежно и по-дружески, а потом им становится скучно. Причины таких взглядов кроются в том, что сам Марк никогда не любил больше трёх лет...

  • Мировая премьера: 10 декабря 2011
  • Российская премьера: 10 мая 2012, Cinema Prestige

|
Качество видео: HDRip

Продолжительность: 01:37:50

Формат: avi
Видео: XviD, 720x304, 1743 kbps
Аудио: русский, дублированный [лицензия], AC3 5.1, 384 kbps

Код:

General
Complete name                    : H:\Видео\dvdrips\Lyubov.zhivet.tri.goda.2011.D.HDRip.avi
Format                           : AVI
Format/Info                      : Audio Video Interleave
File size                        : 1.46 GiB
Duration                         : 1h 37mn
Overall bit rate                 : 2 137 Kbps
Writing application              : VirtualDubMod 1.5.10.2 (build 2540/release)
Writing library                  : VirtualDubMod build 2540/release

Video
ID                               : 0
Format                           : MPEG-4 Visual
Format profile                   : Streaming Video@L1
Format settings, BVOP            : Yes
Format settings, QPel            : No
Format settings, GMC             : No warppoints
Format settings, Matrix          : Default (H.263)
Codec ID                         : XVID
Codec ID/Hint                    : XviD
Duration                         : 1h 37mn
Bit rate                         : 1 743 Kbps
Width                            : 720 pixels
Height                           : 304 pixels
Display aspect ratio             : 2.35
Frame rate                       : 24.000 fps
Resolution                       : 24 bits
Colorimetry                      : 4:2:0
Scan type                        : Progressive
Bits/(Pixel*Frame)               : 0.332
Stream size                      : 1.19 GiB (82%)
Writing library                  : XviD 1.2.1 (UTC 2008-12-04)

Audio
ID                               : 1
Format                           : AC-3
Format/Info                      : Audio Coding 3
Codec ID                         : 2000
Duration                         : 1h 37mn
Bit rate mode                    : Constant
Bit rate                         : 384 Kbps
Channel(s)                       : 6 channels
Channel positions                : Front: L C R, Surround: L R, LFE
Sampling rate                    : 48.0 KHz
Stream size                      : 269 MiB (18%)
Alignment                        : Split accross interleaves
Interleave, duration             : 42 ms (1.00 video frame)
Interleave, preload duration     : 500 ms

picpicpic
Для увеличения картинки щелкните мышкой по превью

Этот торрент недоступен для скачивания без регистрации, однако доступен по публичной magnet-ссылке (источники с публичных трекеров). Перед использованием ссылки прочтите, пожалуйста Пользовательское соглашение, а также как можно дольше оставайтесь на раздаче! Для того, чтобы скачать сам торрент-файл (который видит больше источников), а также для того, чтобы поблагодарить релизера, вам необходимо зарегистрироваться. Если регистрироваться лень - вы можете также попробовать скачать релиз по нашим партнерским ссылкам ниже.

[underverse.su].t18602.torrent
Трекер: Зарегистрирован   [ 04.07.2012 11:49 ]  

Статус: проверено (by WeaSel at 05.07.2012 10:14)
Поблагодарили: пока никто не поблагодарил...
Тип торрента: публичный - доступные источники с открытых трекеров: 
Размер: 1,46 GB (занимает 0,33 DVDR, для записи нужно 1 болванка DVDR/RW)
 
 
Похожие темы
Форум Тема Автор Торрент Отв. Посл. сооб.
Зарубежное кино [DVDRip, Low-Res HDRip, и т.д.] Любовь живет три года / L'amour dure trois ans (Фредерик Бегбедер / Frederic Beigbeder) [2011 г., комедия, BDRip-AVC] Garnett
6 | 0

0 | 454

23

12.09.2012 11:55


Яндекс.Метрика powered by Sphinx


В Н И М А Н И Е
Сайт не распространяет и не хранит электронные версии произведений, а лишь бесплатно и без коммерческой выгоды (не требуя взамен платы,
SMS и т.д.) предоставляет доступ к создаваемому пользователями каталогу ссылок на торрент-файлы, которые содержат только списки хеш-сумм.
Убедительная просьба с жалобами обращаться напрямую к пользователю, разместившему торрент файл.

Вверх