Loading...
Error

Папаши без вредных привычек / On ne choisit pas sa famille (Кристиан Клавье) [2011 г., комедия, приключения, DVDRip]

Статистика раздачи
Размер:  1,46 GB   |    Зарегистрирован:  4 года 4 месяца   |    Скачан:  43 раза

Полного источника не было: 7 месяцев

Сидов:  0  |  0 KB/s  ]   Личеров:  0  |  0 KB/s  ]

* - сиды/пиры с внешних источников

   
 
Автор Сообщение

RG NewCinema 

04-Июл-2012 09:38

Папаши без вредных привычек / On ne choisit pas sa famille


Год выпуска: 2011
Жанр: комедия, приключения
Страна: Франция
Режиссер: Кристиан Клавье
В ролях: Кристиан Клавье, Жан Рено, Мюриэль Робен, Элена Ногуэрра, Мишель Вюйермоз, Майли Флорентин Дао, Хелен Патаро, Анна Гейлор, Кэролайн Англаде, Софи-Шарлотт Хассон
Сюжет фильма:
Алекс хочет удочерить очаровательную 5 — летнюю малышку Майли, которая живет в Таиланде. Но по законам этой страны приёмные родители должны быть официально зарегистрированной супружеской парой. Алекс подбивает своего брата, Сезара Борньоли, разорившегося автомобильного дилера, на аферу: он должен поехать с супругой Алекс, Ким в Таиланд, изображая её супруга, что бы забрать оттуда девочку.
Но трудно найти более непохожих людей, чем Ким и Сезар. А доктор Луиш, опекун девочки, начинает подозревать неладное…

  • Мировая премьера: 9 ноября 2011
  • Российская премьера: 7 июня 2012, Каскад

|
Качество видео: DVDRip

Продолжительность: 01:37:20

Формат: avi
Видео: XviD, 720x304, 1754 kbps
Аудио: русский, дублированный [лицензия], AC3 5.1, 384 kbps

Код:

General
Complete name                    : H:\Видео\dvdrips\Papashi.bez.vrednyh.privychek.2011.D.DVDRip.avi
Format                           : AVI
Format/Info                      : Audio Video Interleave
File size                        : 1.46 GiB
Duration                         : 1h 37mn
Overall bit rate                 : 2 148 Kbps
Writing application              : VirtualDubMod 1.5.10.2 (build 2540/release)
Writing library                  : VirtualDubMod build 2540/release

Video
ID                               : 0
Format                           : MPEG-4 Visual
Format profile                   : Streaming Video@L1
Format settings, BVOP            : Yes
Format settings, QPel            : No
Format settings, GMC             : No warppoints
Format settings, Matrix          : Default (H.263)
Codec ID                         : XVID
Codec ID/Hint                    : XviD
Duration                         : 1h 37mn
Bit rate                         : 1 755 Kbps
Width                            : 720 pixels
Height                           : 304 pixels
Display aspect ratio             : 2.35
Frame rate                       : 25.000 fps
Resolution                       : 24 bits
Colorimetry                      : 4:2:0
Scan type                        : Progressive
Bits/(Pixel*Frame)               : 0.321
Stream size                      : 1.19 GiB (82%)
Writing library                  : XviD 1.2.1 (UTC 2008-12-04)

Audio
ID                               : 1
Format                           : AC-3
Format/Info                      : Audio Coding 3
Codec ID                         : 2000
Duration                         : 1h 37mn
Bit rate mode                    : Constant
Bit rate                         : 384 Kbps
Channel(s)                       : 6 channels
Channel positions                : Front: L C R, Surround: L R, LFE
Sampling rate                    : 48.0 KHz
Stream size                      : 267 MiB (18%)
Alignment                        : Split accross interleaves
Interleave, duration             : 40 ms (1.00 video frame)
Interleave, preload duration     : 500 ms

Семпл: http://multi-up.com/727837
picpicpic
Для увеличения картинки щелкните мышкой по превью

Этот торрент недоступен для скачивания без регистрации, однако доступен по публичной magnet-ссылке (источники с публичных трекеров). Перед использованием ссылки прочтите, пожалуйста Пользовательское соглашение, а также как можно дольше оставайтесь на раздаче! Для того, чтобы скачать сам торрент-файл (который видит больше источников), а также для того, чтобы поблагодарить релизера, вам необходимо зарегистрироваться. Если регистрироваться лень - вы можете также попробовать скачать релиз по нашим партнерским ссылкам ниже.

[underverse.su].t18601.torrent
Трекер: Зарегистрирован   [ 04.07.2012 09:38 ]  

Статус: проверено (by WeaSel at 04.07.2012 11:26)
Поблагодарили: 1 человек
Тип торрента: публичный - доступные источники с открытых трекеров: 
Размер: 1,46 GB (занимает 0,33 DVDR, для записи нужно 1 болванка DVDR/RW)
 
 
Похожие темы
Форум Тема Автор Торрент Отв. Посл. сооб.
Зарубежное кино HQ Папаши без вредных привычек / On ne choisit pas sa famille (Кристиан Клавье) [2011 г., комедия, приключения, HDRip] (Rus, Fra) HQ Underverse HQ Underverse
0 | 1

0 | 1055

43

25.07.2012 19:05

daf1313 Пол:Муж

08-Июл-2012 10:19

Спасибо!

Яндекс.Метрика powered by Sphinx


В Н И М А Н И Е
Сайт не распространяет и не хранит электронные версии произведений, а лишь бесплатно и без коммерческой выгоды (не требуя взамен платы,
SMS и т.д.) предоставляет доступ к создаваемому пользователями каталогу ссылок на торрент-файлы, которые содержат только списки хеш-сумм.
Убедительная просьба с жалобами обращаться напрямую к пользователю, разместившему торрент файл.

Вверх